&title=Away From Here
&artist=Kenny Pham
&first=0.02
&des=譜面+100号
&lv_7=宴
&inote_7=(150)
{256}
8<8-5-2-7p3-8[4:29]*-6-4-2-8-5-2-7p3-8b[4:29],1>1-4-6-1[4:30],,,,,,,,,,,,,,,,,,,,,,,,,,,,,,,,,,,,,,,,,,,,,,,,,,,,,,,,,,,,,,,
{4},,,,,,,,,,,,,,,,,,,,,,,,,,,,,,,
(75)
{8}7-4[8:1]/2,,7,,2?-5[8:1],1,28,7,7v4[8:1]/2,,17,,2?-5[8:1],18,72,6,6p5[8:1]/3,,6,,2?qq4[8:1],3,72,7,7p5[8:1],,72,,7?qq5[8:1]/2?pp4[8:1],18,72,,
{8}
7-2b[16:1]/2,3,3,3,3/1?-5b[16:1],3/1,3/1b,3,
{16}2^5[16:1]/6,,2/6?^1[16:1]*^1[16:1],6,2,,6,,2-5[16:1],8,2/8?-4b[16:1],8,2b,,8,,3-6[8:1],,3/6?v1b[8:1],6,3,,,,5^8[16:1],1,5/1?^4[16:1]*^4[16:1],1,,,,,8-5[16:1],,8/4?-1[16:1]*-1[16:1],4,8,,4,,6v3[16:1],2,6/2?v7b[16:1],2,6,,2,,8<8<8[4:15],,,,,,,,,,,,,,,,8<8[4:11]*<8[4:11],,,,,,,,,,,,,,,,4>8b[4:7],,,,,,,,,,,,,,,,,,,,,,,,,,,,,,,,,,,,,,,,,,,,,,
(150)
{16}5,6,7,8,1/4^1[8:1],,,,4,,7p3[8:1],,,,7,,8^3[8:1],,,,8,,4-8[8:1],,,,4,,3^1[8:1],,,,3b,,8,,7^4[8:1],,,,7,,1-5[8:1],,,,1,,6-2[8:1],,,,6,,4-8[8:1],,,,4,,7p3[8:1],,,,7b,,8,,1^3[8:1],,,,1,,8^6[8:1],,,,8,,4^2[8:1],,,,4,,5^7[8:1],,,,5,,2-6[8:1],,,,2b,,8,,7-3[8:1],,,,7,,2-5[8:1],,,,2,,6-2[8:1],,,,6,,3-7[8:1],,,,3,,5-1[8:1],,,,5b<5[4:32],,,,Cf,,,,,,,,,,,,,,,,,,,,,,,,,,,,,,,
{256},,,,,,,,,,,,
{8}
E1,E2,E3,E1,E2,E3,E1,E2,E3,E1,E2,E3,E1,E2,E3,E4,B1,B2,B3,B1,B2,B3,B1,B2,E1,E2,E3,E1,E2,E3,E1,E2,A1,A2,A3,A1,A2,A3,A1,A2,A3,A1,A2,A3,A8,A1,A2,A3,4,,4,,4,,4,,4,,4,,4,,4/E7,E6,4/E8,E7,4/E6,E8,4/E7,E6,4/E8,E7,4/E6,E8,4/E7,E6,4/E8,E7,4/E6,E7,4/E8,4/E7,4/E6,4/E8,4/E7,4/E6,4/E8,4/E7,4/E6,4/E8,4/E7,4/E6,4/E8,4/E7,4/E6,4/E8,
{16}4,8,4,8,3,7,3,7,2,6,2,6,1,5,1,5,
{12}15,26,73,84,37,62,5b/1b,,,
{256},,,,
{4},
{32}8x<4[8:1],7x<3[8:1],6x>2[8:1],5x>1[8:1],,,,,8x-4[12:1],7x,6x,5x,,,,,
(1200)
{4}8x-4[16:6]*-4[16:6]*^2[0.4##0.08375]*^3[0.4##0.125625]*>4[0.4##0.1675]*>5[0.4##0.209375]*>6[0.4##0.25125]*>7[0.4##0.293125]*>8[0.4##0.355],,,,,,,,
(150)
{32}8x-4[12:1],,,,,,,,,,,,,,,,8x<4[8:1],7x<3[8:1],6x,5x,,,,,8x>4[0.55##0.2]*>4[0.55##0.2],7x>3[0.45##0.2],6x<2[0.35##0.2]*<2[0.35##0.2],5x<1[0.25##0.2],,,,,5x,,,,,,,,1x>5[8
:1]/5x<1[0.2##0.2],2x>6[8:1]/6x<2[0.2##0.2],3x<7[8:1]/7x>3[0.2##0.2],4x<8[8:1]/8x>4[0.2##0.2],,,,,1x-5[8:1],2x,3x,4x,,,,,1x<1[0.55##0.4]*<6[0.55##0.15]*<5[0.55##0.2]*<4[0.55##0.25]*<3[0.55##0.3]*<2[0.55##0.35],,,,,,,,1x,2x,3x,4x,8x,7x,6x,5x,4x>8[8:1],3x>7[8:1],2x,1x,,,,,4x<8[0.55##0.2]*<8[0.55##0.2],3x<7[0.45##0.2],2x>6[0.35##0.2]*>6[0.35##0.2],1x>5[0.25##0.2],,,,,,,,,,,,,,,,,,,,,{32}8x<4[8:1],7x<3[8:1],6x>2[8:1],5x>1[8:1],,,,,8x-4[12:1],7x,6x,5x,,,,,
(1200)
{4}8x-4[16:6]*-4[16:6]*^2[0.4##0.08375]*^3[0.4##0.125625]*>4[0.4##0.1675]*>5[0.4##0.209375]*>6[0.4##0.25125]*>7[0.4##0.293125]*>8[0.4##0.355],,,,,,,,
(150)
{32}
8xv3[12:1]*v5[0.6##0.15]*-4[0.8##0.15],,,,,,,,,,,,,,,,,,,,,,,,8x-2[8:1],7x-2[32:3],6x-3[32:2],5x-3[32:1],,,,,,,,,,,,,1x>5[8:1],2x>6[8:1],3x,4x,,,,,1x<5[0.55##0.2]*<5[0.55##0.2],2x<6[0.45##0.2],3x>7[0.35##0.2]*>7[0.35##0.2],4x>8[0.25##0.2],,,,,4x,,,,,,,,,,,,,,,,8x<2[0.8##0.25],7x<1[0.8##0.25],6x>8[0.8##0.25],5x>7[0.8##0.25],,,,,1x,2x,3x,4x,,,,,8xz4[8:1]*s4[8:1],,,,,,,,,,,,,,,,1x>4[12:1],2x>5[12:1],3x<6[12:1],,8x,7x,6x,,1x>1[4:1]*>1[4:1],2x>2[4:1],3x<3[4:1],4x<4[4:1]*<4[4:1],,,,,1x,,,,,,,,,,,,,,,,1x,2x,3x,4x,8x,7x,6x,5x,1x>1[4:1],2x>2[4:1]*>2[4:1],3x<3[4:1],4x<4[4:1]*<4[4:1],5x<5[4:1],6x<6[4:1]*<6[4:1],,,1xv6[32:5],,,,,,,,,,,,,,,,8x<4[8:1],7x<3[8:1],6x,5x,,,,,8xq5[8:1],7x>3[0.45##0.2],6x<2[0.35##0.2]*<2[0.35##0.2],5x<1[0.25##0.2],,,,,5x>2[32:3]*>1[8:1]*>8[32:5]*>7[16:3]*>6[32:7]*>5[4:1],,,,,,,,5x-1[8:1],,,,,,,,,,,,,,,,8x<4[8:1],7x<3[8:1],6x,,1x,2x,3xh[32:10],,8x>4[0.55##0.2]*>4[0.55##0.2],7x>3[0.45##0.2],6x<2[0.35##0.2]*<2[0.35##0.2],5x<1[0.25##0.2],,,,,,,,,,,,,1x>5[8
:1]/5x<1[0.2##0.2],2x>6[8:1]/6x<2[0.2##0.2],3x<7[8:1]/7x>3[0.2##0.2],4x<8[8:1]/8x>4[0.2##0.2],,,,,1x-5[8:1],2x,3x,4x,,,,,1x<7[16:1]*<6[32:3]*<5[8:1]*<4[32:5]*<3[16:3]*<2[32:7]*<1[4:1],,,,,,,,1xqq7[12:1]*pp3[0.6##0.15]*-5[0.8##0.15],,,,,,,,,,,,,,,,,,,,,,,,
8x<4[8:1],7x<3[8:1],6x>2[8:1],5x>1[8:1],,,,,8x-4[12:1],7x,6x,5x,,,,,
(1200)
{4}8x-4[16:6]*-4[16:6]*^2[0.4##0.08375]*^3[0.4##0.125625]*>4[0.4##0.1675]*>5[0.4##0.209375]*>6[0.4##0.25125]*>7[0.4##0.293125]*>8[0.4##0.355],,,,,,,,
(150)
{32}
8xw4[8:1],8?w4[0.35##0.2]*w4[0.35##0.2],8?w4[0.30##0.2],,,,,,,,,,,,,,1x,2x,3x,4x,,,,,
{64}8x<2[0.8##0.25],8?<2[0.775##0.25]*?<2[0.775##0.25],
{96}7x<1[0.8##0.25],7?<1[0.783334##0.23]*?<1[0.783334##0.23],7?<1[0.76668##0.25],
{64}6x>8[0.8##0.25],6?>8[0.775##0.23]*>8[0.775##0.23],
{96}5x>7[0.8##0.25],5?>7[0.783334##0.25]*?>7[0.783334##0.25],5?>7[0.76668##0.24],
{32},,,,1x,2x,3x,4x,,,,,8xs4[4:1]*z4[4:1],,,,,,,,,,,,,,,,Cf,,,,,,,,,,,,,,,,,,,,,,,,,,,,,,,,,,,,,,,,,,,,,,,,,,,,,,,,,,,,,,,,
{4}C,,,,,,,,E5,,,,,,,,D5,,,,,,,,
(75)
{8}7-4[8:1]/2,,7,,2?-5[8:1],1,28,7,7v4[8:1]/2,,17,,2?-5[8:1],18,72,6,6p5[8:1]/3,,6,,2?qq4[8:1],3,72,7,7p5[8:1],,72,,7?qq5[8:1]/2?pp4[8:1],18,72,,
{8}
7-2b[16:1]/2,3,3,3,3/1?-5b[16:1],3/1,3/1b,3,
{16}2^5[16:1]/6,,2/6?^1[16:1]*^1[16:1],6,2,,6,,2-5[16:1],8,2/8?-4b[16:1],8,2b,,8,,3-6[8:1],,3/6?v1b[8:1],6,3,,,,5^8[16:1],1,5/1?^4[16:1]*^4[16:1],1,,,,,8-5[16:1],,8/4?-1[16:1]*-1[16:1],4,8,,4,,6v3[16:1],2,6/2?v7b[16:1],2,6,,2,,8<8<8[4:15],,,,,,,,,,,,,,,,8V64V28[4:11]*V64V28[4:11],,,,,,,,,,,,,,,,4>8b[4:7],,,,,,,,,,,,,,,,,,,,,,,,,,,,,,,,,,,,,,,,,,,,,,
