&title=悔_
&artist=Essbee
&first=0
&des=MasterAX
&lv_5=14
&des_5=MasterAX
&inote_5=
(200){4},,,,,,{2}Ch[4:5],
{4},,,1w5[0.45##0.15],
{8},1/Cf/B7f/B3f,,,,,,7<2[8:5],
{1}7xh[8:5],
{4}8/1,1x>4b[8:1]/8x<5[4:3],{8},,,2,
{4}2s6[2:1],,,7h[4:1],
4w8b[4:5],4bx,{8},,,,,,,,,,4/2<8[8:1],
2/4,
,6>4b[8:1],{4}6<3[16:13],,,,{16},,{24}8x,
7x,6x,{4}5x-1-3[4:1],5/3-6[8:1],
{8},2-8b[8:1],,2b,{16},,,,,6h[16:11],,5-8[16:5],
,,,,,,,,,,,,,2h[16:11],,1-4[16:5],
,,,,,,,,,,,,,,{8}7,
{16}7/5qq1[2:1],,,,,,,,,,,,,6-8[8:1],,6,
,,,,{4}1>4b[8:1],{8}1x,,,8,
7-2[16:3]/6-3[16:3],,,,,1,,1-3[8:1],
,1,{4}7bx,{8}6/5,6pp1[4:3]/5-2b[4:1],,5x,
,,,2xh[8:5],,,,,{4}8b,
{16}8,7,6,5,1,2,3,4,{4}7b-3b[8:1],
7/3-8[8:1],{8}4,4>2[8:1],,4b/8b<6[8:1],,8,
1-3[8:1],8b,1,7b,1-5[8:1],6b,{4}1x,
7bh[8:3],{8}2,1pp4[4:1],,1/6,{16},,,,6,
5,{8}7,{16}3,2,{8}4,7,8b<5[8:1]/1b>4[8:1],,8/1,
,E6/B6,B3/E4,7x-2[8:1],7x,7x,4x-1[8:1],4x,
4x,5-8[8:1],5,5,{16}2,3,4,5,6/1xh,7,8,1,
{4}2h[8:3],{8}7,7h[4:1],{16},,,,8x,7,6,5,
{8}4/1b,{16}2,4,{8}3,{16}7,8,{8}6,6h[4:1]/5xh[8:1],,3b-8[8:1],
,3/8-4[8:1],,4x-7[8:1],,7xw3[8:1],{16},,,,,,,1x,
1x>5>5[2:1],1x,1x,1x,{2}1x,
{8},,4/2-8[8:1],4,{4}2,{8}7-4[8:1],1,
{4}7/8-3[8:1],8-4[8:1],8,{16}5x,5x,5x-7-1-3[2:1],5x,
5x,5x,{8}5x,,,{2}Cfh[8:3],
{8},2v4[8:1]/1v7[8:1],{4}1/2,{8},B6/E6,,2,
2,1/8,7b-4[8:1],1,7,2-5[8:1],8-6[8:1],2,
{4}8,{16}3-1[8:1],5-7[8:1],,,3,5,,,{4}8bh[2:1],
{8},,7,6/5,4,6/5,7,6/5,
{4}2b,{16}8,7,6,5,8,7,6,5,4,3,2,1,
4,3,2,1,{8}7b,8/1,2,1/8,7,1/8,
{16}2,3,{8}4,6,7-4[8:1],4-6[8:1],,,1-3[8:1],
{2}3-8[8:1],{16}7,6,{8}5,{16}7-3[8:1],8,{8}1,
{4}7<5[8:1]*>1[8:1],7x,{16}2x,3x,5x,6x,2,3,5,6,
3,4,6,7,3,4,6,7,{8}2b-6[8:1],8x,2-5[8:1],1,
{4}2<6[8:1],2x,{16}E5,B4,B3,E3,E7,B7,B8,E1,
{24}4bx,3x,2x,1x,8,7,6/3,2,1,8,7,6,{8}5/2h[8:3],,,8-6[8:1],
1,8-5[8:1],,8/5,{16},,4,3,2,1/8,7,6,
5/3,2,1,8,7,6,5,4,3,2,{8}1/7b,,1/7-4[8:1],
8,7/1-5[8:1],2,1/7,{16}8,7,{8}6,2h[8:1],3h[8:1],
4h[8:1],5h[8:1],8h[8:1],7h[8:1],6h[8:1],5h[8:1],{4}2bz6[4:1],
{2}6s2[4:1],{8}7bv5[8:1],7,,,2bv8[8:1],
2,,6bv4[8:1],{4}6,3,
{8}7b,7,{24}1x,2,3,4,,,{8}6,{24}4,3,2,{8}1,7,
{24}1,2,3,8,7,6,2,3,4,8,7,6,2,3,4,{96}8x,,,7x,,,{32}6x,5x,4x,3x,2x,1x,{8}8bx-4-8-5-8-3-8[8:9],
{1},{4},,{16},,{48}Cfh[8:1],
D7f,E7f,B6f,B3f,E3f,{4}D3f,
{32}8bx-2-7-3-6-4b[1:3]`1x-7-2-6-3-5[1:3],7bx/2bx,6bx/3bx,5bx/4bx,{1},,,{4},{16},,,3h[4:3],
,,,1h[2:1],,,,A2f/B2f,
,,,,,,,,,,{4}1<4[4:7],
{8}1x,,,B1,,C,,B7,
,B3/E4,,,{2}Ch[4:3],
{4},6x<2[4:1],{8},2xV46[4:1],,,{4}6xV82[4:1],
2bx,{8},3,{4}4h[4:1],
5h[2:1],{24}E3,B3,{6}B4,{24}B5,B6,E7,8x,,,{4}8xh[8:3],
{8},1>5[8:5],,1,,7,{4}7>1b[8:1],
{8}7x,,,6q4[4:1],,,{4}2q8[4:1],
{8},7<3b[4:1],,7,,B2f/E2f,,,7,
{24}7x,E7,B6,{8}B5,2-7[8:1],,2,{4}4,
{8}5/8,5/8v1[8:1],,8,5-3[8:1],2x,5-7[8:1],1,
5,{32}1,2,{16}3,{32}5x,4x,{16}3x,{32}1,8,{16}7,{32}5x,4x,3x,2x,1x,8x,7x,6x,5x,4,3,2,1,8,7,6,
{8}5,{16}2,2,,8,1/7,2/6,{2}3bx>8v2b[4:1]`5x<8v6[4:1],
{8},7x/1x,{4}7/1-5[8:1],1/7-5[8:1],{16}7/1,2,3,4,
3,2,{8}1/5-7[8:1],5,5x,{2}8bz4z8b[4:1],
{8},7,7x,B8/E1,B2/E2,E4/B4,B6/E6,{24}B8,B1,B2,
B3,B4,B5,B6,,,8x,1,2,3,4,5,{8}6,{32}7bx<4[0.45##0.15]*>2b[0.45##0.15],B7,C,B3,{4}A3,
{8}7x,,,4/2-8[8:1],2,2/5,,7/5,
6,7-1[8:1]/5-3b[8:1],6,5/7,{24},,,A2,B2,Cf,,,,,,,{8}8b,
6,8-6[8:1],5,8,4b,8-2[8:1],3,
{4}8-5[8:1],{8}8/3b,2b,{4}1bw5b[8:1],1b,
{8}7,{24}7/5bx,6/4,5/3,4/2,1,8,7,6,5,4,3,2,1h[8:1],,,{8}7b,{24}7,8,1,
2,3,4,5,6,7,8/4,1,2,3,4,5,6,7,8,5p1b[8:1]`1xp5[8:1],,,,,,{8}5x-7b[8:1]`1x-3[8:1],
,5x-2[8:1]`1bx-6b[8:1],,5x/1x,{32},,,,E7,B6,C,B3,{4}E3,
{16}1x,2,3,4,2,3,4,5,2,3,4,5,{4}7bv5[8:1]*-4b[8:1],
7b,{8}2,3z7[8:1]`2s6b[8:1],,3/2,,8x,
8x,{16}8,7,{8}6,{16}3,4,{8}3,{16}7,5,{8}6,{16}2,1,
2,8,2,7,2,6,2,5,2,4,2,3,{4}2-7[8:1],
2/7,{16}6,8,{8}6,{4}1/7,8h[8:1]/2h[8:1],
{32}1b,2,3,4,{8}5/7,6,6,4-1[8:1]/8-5[8:1],6/2,{4}4/8,
{8}2b,{16}3,4,{8}3,{16}3,5,{8}3,{16}3,6,3,7,2,8,
1,8,{24}1b,2,3,4/8,7,6,5/1,2,3,4/8-4[8:1],7,6,5/1-5[8:1],2,3,{8}4/8x<6[8:1],1x>3[8:1],
8xw4[8:1],1x,{4}8x,{16},,6,5,,3,{8}4,
{4}7v4[8:1]/2-7[8:1],7/2<2[4:1],2x,B7/B6,
5<2[8:1],5/2-7b[8:1],4-1[8:1],4x,
{8}7,8h[8:1]/6h[4:1],,2x,{4}2x,{8}2x-6[0.6##0.15],1x-5[0.6##0.15],
8x-4[0.6##0.15],7x-3[0.6##0.15],2x,1x,8x,7x,{4}2x,
{32}2x,3,4,5,6,7,8,1,{8}2,{16}6b,5,4,3,7b,6,5,4,8b,7,
6,5,{32}1b,2,3,4,5,6,7,8,{16}1/4bx,5x,6x,7x,3b,4,5,6,2b,3,
4,5,{24}1b,7,1,7,1,7,1,7,1,{8}7h[8:3],{32}4,3,2,1,{16}8,{32}6,5,{8}4,
2h[8:3],{32}5,6,7,8,{16}1,{32}3,4,{8}5,{16}1b,2,3,4,6,5,6,8,
7,8,6,1,6-3[8:1],2,6,2,{4}6b,{16}2b,1,8,7,
2b,1,8,7,8b,7,6,5,8b,7,6,5,1b,2,3,4,
1b,2,3,4,{32}8,7,6,5,4,3,2,1,{8}8,{24}1b,2,3,{8}4,{24}8b/5,7,6,
{8}5,{24}1b/4,2,3,{8}4,{24}8b/7b,6/1,2/5,{8}4/3,{24}2b/1b,3/8,7/4,{8}5/6,{24}1b/8b,7b/2b,3b/6b,
{8}4b/5b,{24}7x,,5x,,6x,,2x,,4x,,3x,,{8}7x,2x/7x,1x/8x,
{24}2,7,2,7,2,7,{16}3,6,4,7,2,8,{24}1,8,1,8,1,8,1,8,1,
8,2,7,2,7,2-4[8:1],7-5b[8:1],2,7,2,7,2,{4}7b,{16}3,5,4,6,
2,5,4,6,1,7,8,6,1,5,2,4,3,6,4,5,
3,6,1,7,2,5,3,7,1,8,8,7,{8}1,2bxh[16:1],
8/2xh[16:1],7/2xh[16:1],6/2h[16:1],5/2h[16:1],1/5h[16:1],2/5h[16:1],3/5h[16:1],4/5h[16:1],
5h[16:1]/4h[16:1],3h[16:1]/6h[16:1],7h[16:1]/2h[16:1],1h[16:1]/8h[16:1],2b/1b,3/8,7/4,5/6,
{16}3,4,7,6,2,3,8,7,{24}2,3,4,8,7,6,1,2,3,7,6,5,
{32}2,3,4,5,8,7,6,5,1,2,3,4,8,7,6,5,1,2,3,4,5,6,7,8,1,2,3,4,5,6,7,8,
{1}1b-3-5-7b[8:55]`2bx-4-6-8[8:55],
,,,,,,{4},,,B7/B6,
{8}B3,B5,{4}Ch[2:1],{8},,,,E8,
B1,,,{4}B2/E3,E7,
{16}B3,B4,{8}E5,{4}B6,{8},,,B1,
,B3,{4}B4,{8},,,,,B6,
{4}B7,{16},,,,,,,,B1,
B2,,B4,{8}B5,{16}B7,E8,E2,B2,E6,B6,B3,E4,E8,E7,
{8}E6,{24},,,,,,6bx-3b[1:2],5x,4x,{2}3x,
E
