&title=キリトリセン
&artist=長崎そよ
&first=-0.25
&des=Lv Cat
&demo_seek=107
&des_5=Lv Cat
&lv_5=13
&inote_5=(165){4},,4/5h[4:1],3,
{8}6/2,3,4,5/7h[4:1],,8,,6/1,
,5/3,{4}5/3,6/4h[4:1],8,
{8}4/6,4/6,,3<6[4:1],,6<1[4:1],,1>4[4:1],
,4<7[4:1],,7,{2}8h[4:1],
{8}7/1,2,3,4/6<1[4:1],,1>4[4:1],,4<7[4:1],
,7>2[4:1],,2w6[8:3],,,,,,,7,
2/7-4[8:1],,7/2-5[8:1],,2/6,
,7/2,{16}8,1,8,1,{4}8w4[8:1],8bx,
{8}5/4,3,6/2,7/1>4[8:1],,6,6,7,
,4/6h[8:1],{4}4,3/7<4[8:1],2/7,
{8}7/1,1/7,,1>4[4:1],,4<7[4:1],,7>2[4:1],
,2>5[4:1],,5,{4}7-3[8:1],7,
{8}2/8,3,4/6,5-8[8:1],,3-7[8:1],,6-1[8:1],
,2-5[8:1],,8<3p1[2:1],,,,,,,,7/2-5[8:1],
,2/7-4[8:1],,7/2,
,6/3,{16}4,5,4,5,{4}4b-2[8:1],4/6,
{8}5/4,6,7/4,3/8>3[4:1],,3<6[4:1],,8,
,1,1,1/7-5[8:1],,,1-3[8:1],1,
,4-8[8:1],,4/5,,5,6,7,
{4}1-4[8:1]/8-5[8:1],8x/1x,2-4[8:1],2/7,
{8}5/6,4,3,7/2<7[4:1],,7<4[4:1],,4,
,8,8,2-8[8:1],,,7-3[8:1],7,
,4-6[8:1],,4/2,,7/3,4,5/7,
4/6h[8:1],3,2/5h[8:1],1,{4}7-4[8:1]/8-3[8:1],7x/8x,
{8}4/5,3,2/5,6/1<6[4:1],,6>3[4:1],,8,
,8,1,8/2>4[8:1],,,8<6[8:1],8,
,5-1[8:1],,5/4,,4,3,2,
{4}8-5[8:1]/1-4[8:1],8x/1x,7-5[8:1],7/1,
{8}4/3,5,6,2/7>2[4:1],,2>5[4:1],,5,
,1,1,7>1[8:1],,,2-6[8:1],2,
,5>3[8:1],,5/7,,6/4,3,2,
{4}8-4[8:1]/1-5[8:1],1b/8b,{8}3>6[8:3],,,4,
{4}4,{8}3>6[8:3],3,,4,{4}4,
4,5,{8}6<3[8:3],,,5,
{4}5,{8}6<3[8:3],6,,5,{4}5,
4/6,4/2,{8}1<4[8:3],,,2,
{4}2,{8}1<4[8:3],1,,2,{4}2,
6/1,8/7,{8}8>5[8:3],,,7,
{4}7,{8}8>5[8:3],8,,7,{4}7,
7-3b[8:1],7x,{8}2pp5[8:13],,,6,
{4}6,{8}7,7,,8,{4}8,
8-5[8:1],8x,{8}7qq4[8:13],,,3,
{4}3,{8}2,2,,1,{4}1,
1-4[8:1],1x,5/3,{8}6/2,6/2-5[8:1],
,6-1[8:1],,3-8-3[8:3],,7-4b[8:1],,,,5x/3x,
6,7>2[8:1],,7/3p6[8:1],,3/7p3[8:1],
,7/8q4[8:1],,8b/6b<1[8:1],,6b/3bp5[8:1],,3b/6b,
,6b<4q5[1:1],,4bh[1:1],,,,,,,,,,,,,,4<1pp1[4:3],
,4h[4:3],,,,,,,,6-1[8:1],
,3-8[8:1],,7-4[8:1],
,2-5b[8:1],,,,,{4}8b/7b<4[4:1],
{8}8,1,2,3>8[4:1],,8<5[4:1],,5>2[4:1],
,2<7p4>2[4:3],,6bh[4:3],,,,,,,,7/4,
,6/3,,5/2,
,7/1,{16}8,1,8,1,{4}8w4[8:1]*-4b[8:1],8b,
{8}6v1[8:1],5,4,3-8[4:1],,8-5[4:1],,5-2[4:1],
,2-7[4:1],,7-2[16:3]*-4[16:3],,,,,6/4,
3,7/2,8/1x>4[8:1],,1x<6[8:1],,1x-5[8:1],
,1bx,,,{2}7-3[8:1]/3-7[8:1],
{8}6/2,3/5,4,5h[4:1],{16},,4,5,{8}4,6/4,
,3/7>3pp4[4:3]*<3qq2[4:3],,,,,,,,,,3h[4:1],
,6h[4:1],,4h[4:1],
,5bh[8:33],,,{2}4h[4:15],
{4},,,,,,,,,,,,,,8xqq5[8:5],
1,
2,3,4qq1[4:3],5,
6,7,8,8,
{8}7/1,7/1,,8bw4b[1.2727##0.1818],,,,,,,{4}8bx,
2-5[8:1]/6-1[8:1],6b/2b,
{8}4x/8x,1,6/2,8-3[8:1]/4-7[8:1],,4b/8b,,1-6[8:1]/5-2[8:1],
,5b/1b,,7x/3x,{4}7bx>2[8:1],7/4,
{8}5/2,6/3,,7b/1b,{16}5,3,5,4,{8}5,2b/8b,
{16}4,6,{8}4,7b/1b,5/3,{2}8bx<5[8:1]/2bx>5[8:1],
{8}6x/4x,3,2/8,1x<6[8:1],,6/1x>4[8:1],,4/1x<6[8:1],
,6/1xq6[4:1]*>5[4:1],,,,,6x/3x,6x/3x,
6x/3x,6x/3x,6x/3x,7b/1b,{16}5,3,{8}5,2b/8b,{16}4,6,
{8}4,2b/8b,{16}6,4,{8}6,8b-6[8:1],4x,8-2[8:1],4x,
8-6[8:1],4x,8,4x,1x<7[8:1],5x,1>3[8:1],5x,
1<7[8:1],5x,1,5x,7x-5[8:1],3x,7-1[8:1],3x,
7-5[8:1],3x,7,3x,2x<8[8:1],6x,2>4[8:1],6x,
2<8[8:1],6x,2,6x,{2}7bpp4[2:1],
{8}4,3,2,2>5[4:1],,5<8[4:1],,8>3[4:1],
,3<6[4:1],,6>3[4:1],,,,7,
8,1,,3/5<8[8:1],,5/3>8[8:1],,3/5-8[8:1],
,5/3-8[8:1],3,5bx/B1f/3bx>4pp4qq4b[4:7],{1},,{4},,{8}2x/1x,
2/1,8,8<5[4:1],,5>2[4:1],,2<7[4:1],
,7<4[4:1],,4,{4}2-6[8:1],2,
{8}7/1,6,5/3,4-1[8:1],,6-2[8:1],,3-8[8:1],
,7-4[8:1],,1>6q8[2:1],,,,,,,,2/7-4[8:1],
,7/2-5[8:1],,2/7,
,3/6,{16}5,4,5,4,{4}6-1[8:1]/3-8[8:1],6b/3b,
{8}2>5[8:1],8,7,6,,7-5[8:1],1,7,
1-5[8:1],5-3[8:1],1,6,{4}7-3[8:1],7,
{8}6/4,6/4,,3<6[4:1],,6<1[4:1],,1>4[4:1],
,4<7[4:1],,7,{4}1-5[8:1],1,
{8}7-5[8:1],1,7,3-8[8:1],,6-1[8:1],,2-5[8:1],
,7-4>5[8:5],,,,,{4}4,
{8}4,4,,7-5[8:1]/8-4[8:1],,7x/8x,,2-4[8:1]/1-5[8:1],
,2x/1x,{32},,,,,,,,6x,5x,{16}4x,,,,,5,4,
5,4,5,4,6,3,7,2,8,1,8,1,7,2,6,3,
5,4,5,4,6,3,7,2,8,1,8,1,7,2,6,3,
5,4,5,4,6,3,7,2,8,1,8,1,7,2,6,3,
5,4,5,4,6,3,7,2,8,1,8,1,7,2,6,3,
5,4,5,4,{4}5xh[32:17],{64},,,,,,,,,,,,,,,,A1/B1,C,{32}B5f,{4},,{16},,,2/8,
3/7,{8}4/6,
E
