&title=【狂】Drink
&artist=Dr. Peacock & D-Frek
&first=0.048
&des=哈朗
&lv_7=14+?
&des_7=哈朗
&inote_7=
(195){4}6h[4:1]/5h[4:1],{32},,,,,,,,4h[4:1]/3h[4:1],,,,,,,,,,,,,,,6,
{4}5h[2:1],4h[4:1],,8-4[8:1]/1-5[8:1],
{1}8b/1b/Cf,
{4},,,,,,,,,,,,6,
5,{2}6h[8:3],
{4}3,4,{2}3h[8:3],
{4}6/5,7/4,{2}6h[8:3]/5h[8:3],
{4}4/3,5/2,{2}3h[8:3]/4h[8:3],
{4}6/4,5/7h[4:1],3h[4:1],{8}5,5,
{4}4/2,5/3h[4:1],6h[4:1],{8}4,4,
{4}1/8h[4:1],5,8/1h[4:1],{8}4,5,
{4}6/4,5/3,{8}6h[8:3],B3,B4,B5,
{4}2/8,1/3h[4:1],7h[4:1],{8}1,1,
{4}8/6,1/7h[4:1],{8}2h[4:1],B8,B7,B6,
5/4h[4:1],6,1,8,4/5h[4:1],3,8,1,
{4}2/8,1/7,{16}5-1[8:1],3,6,4,{4}5b,
{8}5bx/3bx,4,6/4,5,{4}6h[8:1]/3h[8:1],{8}7x/6x,2x/3x,
5/6,5,3/4,4,{4}8h[8:1]/1h[8:1],{8}2x/3x,7x/6x,
5/4h[8:1],6,7/3h[8:1],8,7/2h[8:1],6,3x/2x,6x/7x,
4/5h[8:1],3,2/6h[8:1],1,2/7h[8:1],3,{4}4/5,
{8}7x/6,7x/5,7x/4,7x/3,7x/5,7x/4,7x/3,7x/2,
2x/3,2x/4,2x/5,2x/6,2x/4,2x/5,2x/6,2x/7,
1-6[8:1],2,3-8[8:1],4,5-2[8:1],6,7-4[8:1],8,
1-6[8:1],2,3>5[4:1],4,{2}5-1[8:1],
{8}5-7[8:1],6,4-8[8:1],3,4-2[8:1],3,5-1[8:1],6,
5-7[8:1],6,4-8[8:1],3,4-2[8:1],3,5-1[8:1],6-8[8:1],
5-3[8:1],6-2[8:1],5-1[8:1],6-8[8:1],5-3[8:1],6-2[8:1],5,6,
5,4,3,2,{32}8b/1b,7/2,3/6,5/4,,,,,,,,,,,,,{8}6/5,
2/8,5/4,8/2,6/5,2/8,5/4,8/2,
6/5,2/8,5/4,8/2,6/5,2/8,5/4,8/2,
3/4,7/1,4/5,1/7,3/4,7/1,4/5,1/7,
3/4,7/1,4/5,1/7,3v2[8:1]/4v5[8:1],7/1,,,7/1,
5/4,8/2,5/4,7/1,5/4,8/2,5/4,
7/1,5/4,8/2,5/4,7/1,5/4,8/2,5/4,
8<6[8:1]/1>3[8:1],{16}7,2,{4}8-5[8:1]/1-4[8:1],8<5[8:1]/1>4[8:1],8/1,
{8}3/6h[8:1],7,6/3h[8:1],2,7/8,8/1,1/2,1/8,
6/8xh[8:1],5,6/8xh[8:1],5,6/8xh[8:1],5,6/8xh[8:1],5,
4/7xh[8:1],5,4/7xh[8:1],5,4/7xh[8:1],5,4/7xh[8:1],5,
8/4xh[8:1],1,8/4xh[8:1],1,8/4xh[8:1],1,8/4xh[8:1],1,
8/3xh[8:1],7,8/3xh[8:1],7,8/3xh[8:1],7,3x/8,3x/8,
7/1h[2:1],6,5,4,3,2,1/3,2/4,
3/5h[2:1],2,1,8,7,6,5,4,
2b/8b,{16}1,1,1,1,{8}1,6b/4b,{16}5,5,5,5,{8}5,
6/3,{16}5,7,{8}5,7/5,{16}5,4,3,2,1/6,8/5,7/4,6/3,
{8}5x/2x-6[8:1],2,2/1x-5[8:1],1,1/8x-4[8:1],8,8,1,
5/1x>3[8:1],6,5/1xp5[8:1],6,{4}5x,{8}6bx/4bx,6bx/4bx,
4x-2[8:1],6,4/7x-1[8:1],5,7/4x-1[8:1],6,4/7x-2[8:1],5,
{4}7xw3[8:1],7x,{8}6b/1b,6b/1b,{4}6b/1b,
{8}4x/7x-3[8:1],7,7/8x-4[8:1],8,8/1x-5[8:1],1,1x,8,
4/8x<6[8:1],3,4/8xq4[8:1],3,{4}4x,{8}3bx/5bx,3bx/5bx,
5x-7[8:1],3,5/2x-8[8:1],4,2/5x-8[8:1],3,5/2x-7[8:1],4,
{4}2x>5[8:1],2x,{2}2b<7b[8:1]/6b>3[8:1],
{8}6b/2b,5b/1b,{4}6b/2b-4[8:1],1h[8:1]/2-5[8:1],{8}1/2-6[8:1],1,
8/2-7[8:1],8,7/2-8[8:1],6,{4}5,{8}7b/1b,7/1,
{4}8w4b[8:1],8x,1w5b[8:1],1x-7[8:1]*-3[8:1],
1x-6[8:1]*-4[8:1],1x,{8}5x-1[8:1],5x,{4}5b,
{8}8/7,1,8/7,6,2/1,8,2/1,3,
5/4,6,5/4,3,6/7,5,3/2,4,
{4}6b/5bp1[8:1],{8}5,7,{4}3b/4bq8[8:1],{8}4,2,
{32}1b,2,3,4,5,6,7,8,1b,2,3,4,5,6,7,8,{4}1bh[4:1],B1/Cf/B5,
{8}6b/5b,8/2,4/5,8/2,6/5,8/2,5/4,8/2,
5/4,7/1,5/4,8/2,5/4,7/1,4/5,6/3,
8/1,6/5,8/1,3/4,8/1,6/4,8/1,3/5,
7/8,4/6,1/2,3/5,7/8,4/6,1/2,3/5,
7q4[8:1]/1p4[8:1],6/2,{4}7b/1b,5v2[8:1]/3v6[8:1],5/3,
{8}7/8,1,6/5,4,2/1,8,3/4,5/4,
{4}6v8[8:1]/5V31[8:1],6b/5b,4<7[8:1]/3q8[8:1],4b/3b,
{16}2,1,3,8,4,7,5,6,{4}Cfh[4:1],E7/B7/B8/B1/B2/E3/E1,
{8}8/1,6/5,8/1,3/4,7/1,5/4,8/2,5/4,
7/1,3/4,2/8,5/4,7/1,3/4,2/8,5/4,
5/8h[8:1],4,5/8h[8:1],4,4/1h[8:1],3,4/1h[8:1],3,
4/7h[8:1],5,4/7h[8:1],5,3/6h[8:1],4,3/6h[8:1],4,
4>1[8:1]/5-2[8:1],5/6,{4}5b/4b,{8}8/7,5/3,8/1,5/3,
1/2,6/4,8/1,6/4,8/1,5/3,7b-5[8:1]/8b-4[8:1],8b/7b,
{4}8b-2[8:1]/7b-3[8:1],8b-4[8:1]/7b-5[8:1],8b-2[8:1]/7b-3[8:1],8b/7b,
{32}1b,8,7,6,5,4,3,2,1b,8,7,6,5,4,3,2,1b,8,7,6,5,4,3,2,1b,8,7,6,5,4,3,2,
{4}1,1,1,1,
8,8,8,8,
6/5,6/5,4/3,4/3,
{8}E7,B4,E6,E3,{16}6,5,{8}6,{16}3,4,{8}3,
5,5,5,5,5,5,5,5,
3,3,3,3,3,3,3,3,
{2}8b-5[8:1]/7b<5[8:1],1b-4[8:1]/2b>4[8:1],
{8}6/5,{16}3,5,{8}4,6,{16}2,4,3,5,4,6,5,7,
{8}6-1[8:1],7,6,7,8-3[8:1],1,8,1,
2-5[8:1],3,2,3,4-7[8:1],5,4,5,
5-8[8:1],7,5,1,4-1[8:1],2,4,8,
7/2,8,7/2,1,{16}8-4[8:1],7,{8}6,{16}1,2,{8}3,
5/3,{16}4,7,{8}5,{16}2,5,{8}4,{16}8,5,{8}7,{16}1,4,
{8}2,{16}6,7,{8}5,{16}4,5,{8}3,{16}5,4,{8}6,{16}2,1,
{8}2/1,2/1,2/1,2/1,2b/1b,2b/1b,2b/1b,2b/1b,
3/8,6,3,5,{16}4qq2b[8:1],5,{8}3,,,{1}6h[2:7],
{2},,E1,
E2,
E3,E4,
{4}7/5,7/5,4/2,4/2,
8/6,7/1,8/2,3/1,
{8}5/4,3/2,1/8,7/6,1/2,3/4,6/5>8-5[4:3],7/8,
,,,,,,,,6b/5b,
8/2,5/4,8/2,6/5,8/2,5/4,8/2,
5/4,7/8,5/4,2/1,6/4,8/1,5/3,8/1,
3/5,8/7,5/3,1/8,5/3,7/8,3/5,8/1,
6/4,8/1,5/3,8/1,5/4,8/2,5/4,7/1,
5p8[8:1]/4q1[8:1],5/4,{4}5b/4b,{8}6/5,8/2,5/4,7/2,
4/3,7/1,5/4,7/2,6/5,8/2,3/4,7/1,
2h[4:1]/4>1[8:1],5,,,7h[4:1]/5<8[8:1],4,,,2/1,
2/1,{16}1,2,3,4,{4}5,{8}5b/1b-5[8:1],1b/5b,
{4}6h[8:1]/1b-7[8:1],6h[8:1]/1b-5[8:1],6h[8:1]/1b-7[8:1],6h[8:1]/1b-5[8:1],
6h[8:1]/1b-3[8:1],7h[8:1]/1b-5[8:1],8h[8:1]/1b-3[8:1],7h[8:1]/1b-7b[8:1],
6h[8:1]/1b-3b[8:1],5h[8:1]/1b-7b[8:1],5h[8:1]/1b-3b[8:1],5h[8:1]/1b<7b[8:1],
4h[8:1]/1b>3b[8:1],5h[8:1]/1b<7b[8:1],6h[8:1]/1b>3b[8:1],1b/5h[8:1],
5h[8:1]/8b-4[8:1],3h[8:1]/8b-6[8:1],3h[8:1]/8b-4[8:1],5h[8:1]/8b-2[8:1],
3h[8:1]/8b-4[8:1],3h[8:1]/8b-2[8:1],8b/3h[8:1],{8}3b/5b,5b/3b,
{2}1bp5b[8:1]/7bq3b[8:1],4bw8b[8:1],
{8}6x/2x,{16}3,5,{8}4,5,3/4,5,6/5,4b,
{4}6<1[8:1],{8}6,4,3>8[8:1],{16}7,7,{8}3,6,
5q1[8:1],3h[8:1],5,4,4p8[8:1],{16}8q4b[8:1],7,{8}4/6,5,
{4}6v1[8:1],{8}6/3,4,5p1[8:1],{16}8,4,{8}5,6,
2-4[8:1],1-5[8:1],2-6[8:1],1-7[8:1],2>5b[8:1],1-6[8:1],2,1,
{4}2<7[8:1],{8}2b/7,6,6>3[8:1],{16}8,1,{8}6b/2,2,
1<6[8:1],2,1b,4,5>2[8:1],{16}7,5,{8}5b-7[8:1],6,
{4}5/4-8[8:1],4/5-1[8:1],5/4-2[8:1],{8}4/5,6,
7/8,5/4,1<4b[4:1]/2p3b[4:1],5/4,,,,,5b/6b,
2/8,3b/4b,7/1,5b/4b,8/7,5b/4b,1/2,
8b/7b,3/5,2b/1b,6/4,8b/1b,5/6,8b/1b,{16}5/3,6/2,
{8}7/1,3/4,8/2,6/5,7/1,5/4,8/2,4/5,
1/7,5/3,1/7,6/4,2p6[8:1]/1<6[8:1],5/3,{4}2/1,
{8}5b/3b,8/1,6b/4b,8/1,3b/5b,8/2,6b/4b,1/7,
6b/5b,8/2,5b/4b,8/2,3b/4b,7/1,5b/4b,{16}7/1,6/2,
{8}5/3,8/1,6/4,8/1,3/4,8/1,6/5,8/1,
5/4,{16}5/4,6/3,{8}7/2,8/1,{16}1,8,{8}1,7/2,5b/4b,
{4}8b/1b>4[8:1],{8}1,8,8<5[8:1],{16}4,4,{8}8,3,
7/2-5[8:1],1,2/7-4[8:1],8,7/2,1>3b[8:1],7,8/1,
5-8b[8:1]*-2b[8:1],4/6,{4}5,{8}4-1b[8:1]*-7b[8:1],5/3,{4}4,
{8}5/4,7/1,{16}4/5,,,8x/2x,{2}8xp4b[8:1]/2x>5b[8:1],
{8}6/3,8/1,5/4,7/2,6/5,8/2,4/3,7/1,
5/4,8/2,5/4,7/1,3bv1[16:3]/5bs1[16:3],5b/3b,,,{4}8h[8:1]/2h[8:1],
6h[8:1]/5h[8:1],7h[8:1]/1h[8:1],{32}3h[8:1]/4h[8:1],,,,,,,6,
{4}5h[4:1],4h[4:1],{8}6,{16}2,2,{8}7,3,
{32}8b<4p3[4:7]/4b>8p7b[4:7],7x/3x,6x/2x,5x/1x,
E
