&title=アイデンティティ
&artist=Sakanaction [cover]
&first=0
&des=KuroNeko
&lv_6=12+
&inote_6=(140)
{1},
{16}
1,8,1,8,1,8,1,8,3,,4/5,,6,6,3,3,
8,,3,4,,6,5,,2/7,,1/8,,6,3,6,3,
8,,2,1,,7,8,{128},,,,,
{16}
4b/5b,,,,1,,1,,
1,,,,3/7,,,,,,8,,8,,8,,
8,,,,2/6,,,,7/8,,,,5/6,,,,
3/4,,,,1/2,,,,,,6,,6-2[4:1],,6,,
6h[8:2],,,,,,,,1,,1,,2/8,,2/8,,
3/7,,3/7,,4/6,,4/6,,5,,5,,4/6,,4/6,,
3/7,,3/7,,2/8,,2/8,,1<6[8:1],,,,2,,,,
8>3[8:1],,,,7,,,,1h[2:1],,8b,,8b,,8b,,
8b,,,,3/6,,,,2h[8:1],,4,3h[16:13],,,6,,
5,,4,,2,,1,,7h[8:1],,5,6h[16:13],,,3,,
4,,5,,7,,8,,1h[8:1],,3,2h[16:11],,,5,,
4,,3,,1,,8,,5/6,,,,3/4,,,,
2/7,,2/7,,1/8,,1/8,,2<7[8:1],,,,3,,4,,
5<8[8:1],,,,8,,1,,2-6[8:1],,,,5-1[8:1],,,,
3-8[8:1],,,,5,,6,,7-2[8:1],,,,8,,1,,
4<7[8:1],,,,3,,2-6[8:1],,,,1-5[8:1],,,,8-4[8:1],,
,,7-3[8:1],,,,4,,5,,6,,1b/8b,,,,
2,,3-7[8:1],,4,,5,,6,,5,,4,,3h[2:1],,
,,2,,2,,2,,1h[2:1],,8,,7,,6,,
5-1[8:1],,5,,3,,2h[4:1],,,,4h[2:1],,,,5h[4:1],,
,,,,2,3,1,,1<6[8:1],,,2,1,,3,,
4h[8:3],,5,,6,,7-4[8:1],,,,8>3[8:1],,,,2,,
,,5,,6,,3,,8h[8:3],,7,,7,,7,,
1,,1-5[8:1],,,,2-6[8:1],,,,3-7[8:1],,,,
4-8[8:1],,,,6,,,,2,,6,,3,,1b/8b,,,,
8,,7>2[8:1],,6,,5h[4:1],,,,6h[4:1],,,,7h[4:1],,
,,2,,2,,2,,3h[4:1],,,,4h[4:1],,,,
5-1[8:1],,,,2,,5b,,8,,8,,8,,,,
3h[8:3]/6h[8:3],,,,,,,,1>1[2:1],,,,5,,,,
{16}1<1[2:1],,,,5,,,,1>1[2:1],,,,5,,,,
1<1[2:1],,,,5,,,,,,7,,7,,7h[2:1],,
,,6,,6,,6h[2:1],,,,5,,5,,5h[2:1],,
,,4,,3,,2<7[8:1],,,,2h[4:1],,,,6,,
6,,5,,4,,4-8[8:1],,,,1h[4:1],,,,2,,
3,,4,,5,,6h[4:1]/7h[4:1],,,,,,8-4[8:1],,,,
2-6[8:1],,2,,,,8b,,,,2/7,,5h[4:1],,,,
1,,1,,1/8,,1/8,,1/8<8[2:1],,,,4,,,,
8>8[2:1],,,,4,,,,8<8[2:1],,,,4,,,,
8>8[2:1],,,,4,,,,,,2,,2,,2h[2:1],,
,,3,,3,,3h[2:1],,,,4,,4,,4h[2:1],,
5,,6,,7,,8h[4:1],,,,2h[2:1],,,,5,,
5,,5,,4,,3/6,,,,2/7,,,,1/8,,
1/8,,1/8>3[8:1],,1<6[8:1]/8,,,,,,2,,1,,8,,
7/3,,6/2,,5/1,,4/8,,3b/7b,,6,5h[16:11],,,4,,
3,,2,,1,,8,,2/6,,3,4h[16:11],,,5,,
6,,7,,8,,1,,3/7,,6,5h[16:11],,,4,,
3,,2,,1,,8,,2/6h[8:7],,7,,7,,7,,
7h[8:3],,,,,,,,7/3,,2,1h[16:11],,,8,,
7,,6,,5,,4,,6/2,,7,8h[16:11],,,1,,
2,,3,,4,,5,,7/3,,2,1h[16:11],,,8,,
7,,6,,5,,4,,7/3h[8:7],,2,,2,,2,,
2h[8:3],,,,,,,,4/5,,,,3/7,,,,2/6,,,,1b/8b,
