&title=憧憬と屍の道
&artist=Linked Horizon
&first=0
&des=欧马基笠
&lv_5=13+
&inote_5=(178)
{4},,,,
{32}2b`7,3b`6,{16}4bV68b[4:1]`5-3v2^1[4:1],,,{4},,
{16},,8h[2:1],,1,,1,,1,,1,,1,7,2,6,3,5,3,5,
{8}2b^5[4:1]/6x,,6,,7,,7h[4:1],5,5,7-4[8:1],,8,1,2h[4:1],,5,
2/5^8[4:1],,2,,3,,4qq4[16:7],4pp4[16:5],,,,,,4,6,2,
8-5[8:1],,1/8^3[4:1],,6,,7,,8,8z4[4:1],,3,2-6[8:1],1,,7,
7xbh[4:1],,5,,48,,2,2h[8:3],{16}1,8,7,6,5,4,3,2,1-4[8:1]*-6[8:1],,2xh[16:1]/8xh[16:1],,,,,,
7b,,5h[8:1],,6,,3h[8:1],,4,,2h[8:1],,5,,1h[32:1],,
7,,8^2[8:1],,,,7,6,5,,5,,2x/6x,,,,
3,,8h[8:1],,1,,6h[8:1],,2,,4h[8:1],,3,,3h[32:1],,
7,,5-1[32:5],,,,7,,6,,5,,2x-5[8:1]/4x-7[8:1],,,,
{8}2b/4b>7[16:5],,,,,5h[4:1],,6,6h[4:1],,7,7h[4:1],,1,1x/7x,,
2b,3,4,5,6h[8:1],5h[8:1],4h[8:1],3h[8:1],{16}2b,,2,1,3,,6b/4,,6,5,7h[16:3],,{32}1b,2b,3b,,{16},,
{8}7x,6,5,4pp3[8:3],3,2h[4:1],,,2-8[8:1],,24,5,6-2[8:1],,7x/6x,,
{16}8-5[8:1],,,2,8,,1V73[4:1],,,,4,,4,,,,6b-4b[8:1],,2,,6xb-2b[48:5],,,,2b<7b[8:1]*^4b[8:1],,,,D2f/A1/A2,,,,
{8}6x/5x,5h[8:1],6,4h[8:1],6^1[8:1],3h[8:1],6b,,
2x/8x,8h[8:1],2,7h[8:1],2^5[8:1],6h[8:1],2b,,
7x/5x,7,6x/3x,6,5x/1x,5,4x/2x,,
{32}2b/1x,3x,{16}4x,,,7,,{32}7b/8x,6x,5x,4x,{16},,1,,{32}1b/5b-1[8:1],2x/6x,3x/7x,4x/8x,{16},,
{8}7b-4[8:1],,2,1xbh[4:1],,5,3b>5[1:1]/7b,,
{4}4h[4:3],,,,4pp5[8:3],,,4,6h[4:1]/4h[4:1],,{16}3,,3b/6,2b/7,1b/8,,,,
2b/4,,,7b/5,,,1b/8,,6b-1[8:1]/3-8[8:1],,,,D3/E3/A2/E7/D7/A7`D1f,,,,
{8}1xb^6[8:1]/2xb^5[8:1],,A1/D2f/A2,,8xb^3[8:1]/7xb^4[8:1],,A8/D8f/A7,,8xb^5[8:1]/1xb^4[8:1],,A8/D1f/A1,,2b/7b,,{32}1x/8x,2x/7x,3x/6x,4x/5x,{8},
4h[4:1]/5h[4:1],,,,{16}4,5,3,6,2,7,1,8<2[4:1],8b,,,,,,1,,1bw5[8:1],,,,,,,,
{8}7x-5[8:1],,7x-3[8:1]/8,,7x-5[8:1]/1,,7x-3[8:1]/2,2,7x-5[8:1],1,7x-3[8:1],8,7x,,1b^3[8:1]/5b,,
1x^7[8:1],4,1x^3[8:1],4,1x^7[8:1],5,1x^3[8:1],5,{16}1x-5[8:1],,,6,1x,,7,,8b/4b,,,,2b-6[8:1]/6b,,,,
{8}2x-4[8:1],,2x-6[8:1]/1,,2x-4[8:1]/8,,2x-6[8:1]/7,7,2x-4[8:1],8,2x-6[8:1],1,2x,,8bw4b[8:1]/4b,,,,1x/7x,,
6x/5x,2x/8x,3x/4x,1x/7x,1bv7^6-4b[4:1]/7bv1^2-4b[4:1],,,,,,2x/6x,,
{16}3b/4x,,3,5,2,,17,,7,5,6,4,8-4[10:1],,2b-5b[10:1],,8,,2-8b[10:1],,7-3[10:1],,2b,,7,,1,,1b,,,,
8b-2[8:1],,3,3,8b-6[8:1],,5,5,8bw4[8:1],,,,8b,,,,2,2,4,4,8,8,6-2[8:1],6,2b-8b[10:1]*-4b[10:1],,,,,,,,
5x/7x-1[8:1],,5xh[4:1]/7x,,,,,,3bq7b[8:1]*<7b[8:1],,,,,,,,
2b/8,,,3/5b,,,7b/6,,1b-4b[8:1]*-6b[8:1],,,,,,,,3x-7[10:1]/5xh[2:1],,,,3x,,,,1b,,,,
1,,24,,6,,58,,2,,43,,1b^4b[8:1]/7b^4b[8:1],,,,,,,,
3b,6,4,6,5,6,4b,7,3,8,2,1,{32}2b,3,4,5,6,7,8,1h[32:17],{8}5bh[2:1],,,,,{32}A2/A6,D3`D7,A7`A3,D8`D4,{16}A8f/A4f,,,,
7b/4,,6,5,6,,3x/5x,,2,1,2,,83,,4/7-1[8:1],,5-2[8:1]/6,,7-3[8:1],,5,,7,,1,,2,,3x/5x,,6,,
7b/1,,2,4,3,,4x/6x,,7,1,8,,2-8[8:1],,34,,2b-5[8:1],,7,7,2,,8x-4[8:1],,3,,8,,1b,,,,
2b/5,,3,4,3,,6x/4x,,7,8,7,,16,,5/2^8[10:1],,4^7[8:1]/3,,2-5[8:1],,4,,2,,8,,7,,6x/4x,,3,,
2b/8,,7,5,6,,5x/3x,,2,8,1,,7,,65,,4,7,5,6,3,4,2,5,4,8,1,7,{24}2,6,2,6,2,6,
{8}2b-6[2:1],,,,,,,4s8[8:17],4xz8[1:2],,
