&title=アンスロポフォビア
&artist=リスミー
&first=0.07
&des_5=SINAMOKU
&lv_5=14+
&clock_count=4
&inote_5=(196)
{1},,
{32}1x,2x,3x,4x,5x,6x,7x,8x,
{8}1x/C1f,,3/8-2[8:1],,4h[4:1]/8,,
{16}1xh,8xh,7h[4:1]x,,3xh,2xh,1h[4:1]x,,6,5,4pp4[4:1]*qq4[4:1],,2,3,{8}4,,,
{8}B5/B6/E6/B2,,1-5[8:1]/7,,1/6h[4:1],,
{16}4x,3,2,1,8/7h[4:1],,,,8x,1,2,3,4/6h[4:1],,,,5,,4,,37,,2,,
{8}6/1-7[8:1],,5h[4:1]/1,,
{16}8xh,1xh,2h[4:1]x,,6xh,7xh,8h[4:1]x,,3,4,5qq5[4:1]*pp5[4:1],,7,6,{8}5,,,
{8}B4/B3/E4/B7,,8-4[8:1]/2,,8/3h[4:1],,
{16}5x,6,7,8,1V37[4:1]/2,,,,17,,6,,5V73[4:1],,,,58,,1,,{4}2,
{8}1-5[8:1]/7,,14,4,4-8[8:1],,42,2,2,7,1,8,3-7[8:1],5,3,5,
{8},16,2,38,7,62,3,4-8[8:1]/5-1[8:1],,
{8}4xv6[8:1]/5xv3[8:1],,4x>1[8:1]/5x<8[8:1],,4x/5x,,,
{8}1-5[8:1]/2,3,14,4,4-8[8:1],6,47,7,7,3,5,4,6V48[4:1],1,6,2,
{8}3h[2:1]x,,4,5,6h[4:1],,2,26,,17,4-8[8:1],35,4b,,,
{8}1,7,2,6,3,5b-1[8:1],,2b-4[8:1]/5,,2x/7x,,
{8}6,5,6h[4:1],,4,3,
{8}2x/6,1,2x/7,3,4x/8,3,2x/7,1,
{8}6x/2,5,6x/3,7,8x/4,7,6x/3,5,
{8}1-5[8:1],,41,3,2b-6[8:1],,7b-1[8:1]/2,,7x/4x,,
{8}3,8,5,6,2qq5[2:1],4,2,,,
{8}7,7,,,4/6h[2:1],,7,8,1,2h[4:1]x/6,,8h[4:1]x,,
{8}5,5,6,6,7,7,8,8,
{8}1b-6[8:1],,1b-3[8:1]/7b-3[8:1],,1b/7b,{8},,
{8}45,6h[32:15]/C1f,,,1h[2:1],{32}7x,8x,,2x,3x,4x,5x,6x,{8}7x,,
{16}1xh/7,6,5,4,1xh/3,4,5,6,1xh/7,6,5,4,2xh/3,4,5,6,
{8}3xh[32:15]/7,,8,8h[2:1],{32}2x,1x,,7x,6x,5x,4x,3x,{8}2x,,
{16}8xh/2,3,4,5,8xh/6,5,4,3,8xh/2,3,4,5,7xh/6,5,4,3,
{8}6xh[2:1]/2,,,1,1V37[4:1],,7,6,
{8}5-3[8:1]*-8[8:1],,5b,,E1/E2/E3/B1/B2,,7p4[2:1],4h[8:3],7,,,,
{8}1b,,7-4[8:1]/3,,2-5[8:1]/7,,6-1[8:1]/2,,3-8[8:1]/6,,7b/3,,
{8}6h[32:15]/C1f,,,3h[2:1],{32}5x,4x,,2x,1x,8x,7x,6x,{8}5x,,
{16}1/5xh,2,3,4,5/1xh,6,7,8,1/6xh,2,3,4,5/8xh,7h,6h,5h,
{8}4xh/3xh[32:15],,6,6h[2:1],{32}4x,5x,,7x,8x,1x,2x,3x,{8}4x,,
{16}8/4xh,7,6,5,4/8xh,3,2,1,8/3xh,7,6,5,4/1xh,2h,3h,4h,
{8}5xh/6xh[4:3],,,7,7-4[8:1],,7,,
{8}8-5[8:1],,8-4[8:1]/3x,,8-6[8:1]*-2[8:1],,8xqq4[2:1],,
{8}8b,,,3,2h[8:3],,,6,5h[2:1]/2,,,B8/B1/E1,C1h[2:1]f,,7-3[8:1],,{32}7,B7,,B3,{8},
{8}1,2,3h[4:1]/8,,E8,E4,B6,B2,C1,,
{8}6x-1[8:1]*-1[8:1]/3x,,6b/2x-5[8:1],,2x,,
{8}8,7,6h[4:1]/1,,3,4,1,6,5,7,4x>8[8:1]*>8[8:1],8xV62[4:1],4b,,,,
{8}7,5,8,E7/B6,1,B4/E4,8,E6/B5,1,B3/E3,8xv5[8:1]*v5[8:1],,8bv3[8:1],,8x,,
{8}5,4,3/6h[4:1],,E4,E6,E3,E7,E2,E8,1xw5[8:1],,
{32}1b,B1,C1f,B5/B4/B6,{8},
{8}3/7-1[8:1],,4h[4:1]/7,,
{16}8xh,7h,6h[8:1],,3h,2h,1h[8:1],,7,6,5pp6[4:1]*qq4[4:1],,3,4,{8}5,,,
{8}B4/B3/E4/B6/B7/E7,,3-7[8:1]/7,,83,,
{16}1h[4:1]/6x,5,4,3,2h[8:1],,,,2h[4:1]/1x,8,7,6,5h[4:1],,,,1,,2,,38,,7,,
{8}6/2-8[8:1],,5h[4:1]/2,,
{16}1xh,2h,3h[8:1],,6h,7h,8h[8:1],,2,3,4qq3[4:1]*pp5[4:1],,6,5,{8}4,,,
{8}B5/B6/E6/B3/B2/E3,,7-4[8:1]/1,,3h[4:1]/7,,
{16}5x,6,7,8,1V37[4:1]/2,,,,17,,6,,5V73[4:1],,,,58,,1,,{4}2,
{4}C1h[4:23]/B1,B2,B3,B4,B5,B6,B7,B8,
{4}E1,E2,E3,E4,E5,E6,E7,E8,
{4}1x,2xh,3x,4xh,5x,6xh,7x,8xh,
{8},6h[4:1],5,4,3h[8:1],6,,8b/1b,,7/3b,5/6b,4b/2,7/8b,,1b/2b,,
{16},,2x,1,2,1,2,1,2,1,3,8,3,8,3,8,3,8,4,
{16}7,4,7,4,7,4,7,5-1[8:1],6,5,6,5,,
{16},,7x,8,7,8,7,8,7,8,6,1,6,1,6,1,6,1,5,
{16}2,5,2,5,2,5,2,4-8[8:1],3,4,3,4,,
{16},,1x,7,3,8,1,6,2,8,4,6,2,5,4,7,3,5,
{16}1,7,3,8,1,6,2,8,4,6,3,5h[16:9],,4x,
{8},{16},3x,{8},2x,5/1xh[4:1],,6,2/7h[4:1],,3h[8:3],4,5,6h[4:1],,5h[4:1],,
{8}4,4,3,3,2,2,1,1,
{32}8b,7,,,,,,,8b,7,6,,,,,,8b/2xh[4:1],7,6,5h[32:5],,,,,{4},
{32}1b,2,,,,,,,1b,2,3,,,,,,1b/7xh[4:1],2,3,4h[32:5],,,,,{8},
{8}45,6h[32:15]/C1f,,,1h[2:1],{32}7x,8x,,2x,3x,4x,5x,6x,{8}7x,,
{16}1xh/7,6,5,4,1xh/3,4,5,6,1xh/7,6,5,4,2xh/3,4,5,6,
{8}3xh[32:15]/7,,8,8h[2:1],{32}2x,1x,,7x,6x,5x,4x,3x,{8}2x,,
{16}8xh/2,3,4,5,8xh/6,5,4,3,8xh/2,3,4,5,7xh/6,5,4,3,
{8}6xh[2:1]/2,,,1,1h[4:1],,8,27,3-7[8:1]/6-2[8:1],,3b/6b,,1/8h[4:1],,2,3,
{8}5h[4:3]/4-8[8:1],,4,,1bV37[4:1],,1,,8<5[8:1],,8>3[8:1],,8,,8b,
{8}7,6h[32:15]/C1f,,,4,{32}5x,4x,3x,2x,1x,8x,7x,6x,5x/4xh[4:1],,,,,,,,
{16}2x,1,8,7,1xh,8h,7h,6h,8x,7,6,5,7xh,6h,5h,4h,
{8}3xh[32:15]/6x,,5,5,{32}4x,5x,6x,7x,8x,1x,2x,3x,4x/5xh[4:1],,,,,,,,
{16}7x,8,1,2,8xh,1h,2h,3h,1x,2,3,4,2xh,3h,4h,5h,
{8}6xh[2:1]/3x,,,5,4,36,,18,7-5[8:1],7,8-4[8:1],8,1-5[8:1],1,2-4[8:1],2,
{8}6x-8[8:1]*-2[8:1],,6,,1x-5[8:1]/3x-7[8:1],,13,,
{8}8xh[4:1],,4xw8[8:1],,{32}4b,E8/E1/E2/B2/C1f/E5,,,{8},,,36,,
{8}1>4[8:1],8,7,6,5<8[8:1],4,3,2,1V37[4:1]*V37[4:1],8,1/7V15[4:1],,,C1f,,,
{8}8<5[8:1],1,2,3,4>1[8:1],5,6,7,8V62[4:1]*V62[4:1],1,8/2V84[4:1],,,C1f,,,
{8}1-6[8:1],7,1-3[8:1],4,1-5[8:1],5,1-6[8:1],7,1-3[8:1],4,1-7[8:1]*-5[8:1],,1b,,
{8}4h[4:1]x/6h[4:1]x,,,E5,C1,E1,18,27,3V51[4:1]/6,,38,7,6-4[8:1]*-4[8:1],,62,,
{8}1V37[2:1],,1h[2:1],,,,,1V37[2:1],,1/8h[8:1]x,,8h[8:1]x,,8h[8:1]x,,8h,
{8}1-5[4:1],,1h[2:1],,,,,6x,5h[8:1],4x,3h[8:1],7x,8h[8:1],1x,2h[8:1],6h,
{8}5V73[2:1],,5h[2:1],,,,,5V73[2:1],,5/4h[8:1]x,,4h[8:1]x,,4h[8:1]x,,4h,
{8}5-1[4:1],,5h[2:1],,,,,25,,B3/B4,B5/B6,B7/B8,B2/B1,,8h[8:1],3h[8:1],
{8}6-4[8:1],,16,2,3-5[8:1],,13,8,7h[16:1]x,6h[16:1]x/4h[16:1]x,
{8}3h[16:1]x/5h[16:1]x,3h[16:1]x/4h[16:1]x,2h[16:1]x/5h[16:1]x,
{8}1h[16:1]x/6h[16:1]x,2h[16:1]x/7h[16:1]x,3x/8x,
{8}1-5[8:1],,12,3,4-8[8:1],,47,6,5h[16:1]x,5h[16:1]x/1h[16:1]x,
{8}5h[16:1]x/2h[16:1]x,5h[16:1]x/3h[16:1]x,6h[16:1]x/4h[16:1]x,
{8}7h[16:1]x/4h[16:1]x,8h[16:1]x/4h[16:1]x,8x/4x,
{16}7,6,5h[8:1],,1,2,3h[8:1],,8,7,6h[8:1],,2,3,4h[8:1],,
{8}1h[16:1]x,8h[16:1]x/2h[16:1]x,7h[16:1]x/3h[16:1]x,6h[16:1]x/4h[16:1]x,
{8}5h[16:1]x/3h[16:1]x,2h[16:1]x/6h[16:1]x,7h[16:1]x/1h[16:1]x,8x,
{8}2-6[8:1],,12,8,7-4[8:1],,78,1,2h[16:1]x,3h[16:1]x/5h[16:1]x,
{8}6h[16:1]x/4h[16:1]x,6h[16:1]x/5h[16:1]x,7h[16:1]x/4h[16:1]x,
{8}8h[16:1]x/3h[16:1]x,7h[16:1]x/2h[16:1]x,6x/1x,
{8}8x<5[8:1],,81,2,3-8[8:1],,8,7,6h[4:1],,4h[2:1],,3,2,1-5[8:1],,
{8}1x/3x,,1,2,3-7[8:1]/8,,7,6,5-8[8:1],,15,,2,3,4h[4:1]/6,,
{8}1x>4[8:1],,18,7,6-1[8:1],,1,2,3h[4:1],,5h[2:1],,6,7,8-4[8:1],,
{8}8x/6x,,8,7,6h[4:1]/5,,1,2,3V51[4:1]/4,,53,,8,7,6h[4:1]/2,,
{8}5,5,3,3,1,1,7,7,
{8}2b-6[8:1],,2b-8[8:1]/7b-4[8:1],,2b/7b,,,,
{8}6b-2[8:1],,6b-4[8:1]/3b-8[8:1],,6b/3b,,,,
{8}1xpp7[4:3],,,,B5/E6/B6,,,,5xpp3[4:3],,,,B1/E2/B2,,,,
{8}1xqq4[4:3],,,,B5/E6/B6,,,,5h[4:1]x,,6h[4:1]x,,8h[4:1]x,,7h[4:1]x,,
{8}5xqq8[4:3],,,,B1/E2/B2,,,,1h[4:1]x,,2h[4:1]x,,4h[4:1]x,,3h[4:1]x,,
{8}1xV37[4:3],,,,B5/E6/B6,,,,8h[8:3]x,,,1x,1/8,,,
{8}4/5,6h[32:15]/C1f,,,1h[2:1],{32}7,8,,2,3,4,5,6,{8}7,,
{16}1xh/7,6,5,4,1xh/3,4,5,6,1xh/7,6,5,4,2xh/3,4,5,6,
{8}3xh[32:15]/7,,8,8h[2:1],{32}2,1,,7,6,5,4,3,{8}2,,
{16}8xh/2,3,4,5,8xh/6,5,4,3,8xh/2,3,4,5,7xh/6,5,4,3,
{8}6xh[2:1]/2,,,
{8}8,1,2,37,6,5/4b-1[8:1],,5b-8[8:1]/4,,E2,E3,E4,E5,
{8}7b-4[8:1]/C1f,,2b-5[8:1]/7,,E1,E8,E7,E6,
{8}1>4[8:1]*>3[8:1]/C1f,,1<6[8:1]*<7[8:1],,1w5[8:1]*-5[8:1],,{16}1b,C1f,{8},3x/7x,,
{8}2-6[8:1],6-4[8:1],2,,8,7,65,4,3/7-1[8:1],,7b/2-6[8:1],,5h[4:1]/2b,,8,,
{8}1/E7/B7,2,3/7xh,4,B2/E3/8,7,6/2xh,5,16,2,3b/7,6b,4b/5b,,
{8}1,8,2h[8:1],7h[8:1],3,6,4h[8:1],5h[8:1],
{8}3-6[8:1],3,3/7-4[8:1],7,7/2-6[8:1],2,28,8,
{16}1b/8,2,3,4,5/8b,7,6,5,4/3,,1/2,,7/8,,5/6,,
{32}8,7,6,5,4,3,2,1,
{32}8,7,6,5,4,3,2,1,{4}8xw4[8:1]*-4[8:1],
{32}8b,B8,C1f,B3/B4/B5,{8},
{8}2x-6[8:1]/6x,,2x/8h[4:1]x,,5,4,3h[4:1]/8,,
{8}1h,8h,7h,6h/2-4[8:1],,,6-2[8:1],,
{8}6x/8x>3[8:1],,8x,,7,6,5<8[8:1]/4,,1,1h[8:3],,,3,4,5/2,6,
{8}7x-3[8:1]/3x,,7x/1h[4:1]x,,4,5,6h[4:1]/1,,
{8}8h,1h,2h,3h/7-5[8:1],,,3-7[8:1],,
{8}3x/1x<6[8:1],,1x,,1,2,3-8[8:1],,5,6,7-4[8:1],,
{8}1,2,3v1[8:1]*v5[8:1],,{16}3x-7[4:9],
E
