&title=病み垢ステロイド
&artist=かいりきベア
&first=0.05
&des=
&des_6=XIAO病垢
&lv_6=14
&inote_6=(203){4},{8},,,,,,2>5[8:1],
2,6,6,,7bx/3bx,2bx/6bx,5bx/1bx,
{16},,2,1,{4}8-4[8:1],{2}8w4[8:1],
{4}2-5[8:1],7/2,{8}6,6h[8:1],,5/1-3[8:1],
,1-5[8:1],,6,{4}6V82[16:3],4b,
3-8[8:1],6/3,{8}7,7h[8:1],4,4-2[8:1],
6,4-8[8:1],,7,{4}7V53[16:3],1b,
2-7[8:1],6-3[8:1],{8}1,1h[8:1],{4}4xh[8:1],
{8},2,6/4,7,{4}8/2v4[8:1],2b/6v8[8:1],
,2-4[8:1],{8}6/2,6h[8:1],,3h[8:3],
{16},,4,5,6,7,{8}8,{4}2-6[8:1],{16}2b,Cf,,,,,,,,,,,,,,,,,,,{4}1-3[8:1],
1-5[8:1],1/6-8[8:1],{8}6,4h[8:1],
,8,{4}4/8v5[8:1],{2}1>4[8:1],
{4}6h[4:1],3,2h[4:1],{8}8,8,
1,8,{4}2-5[8:1],{2}8-4[8:1],
{4}2,4-8[8:1],2-4[8:1],{8}1,1-5[8:1],
,1/8,{4}8-3[8:1],{2}7-4[8:1],
{4}1b/5h[8:7],1b,1b,{8}1b,1b,
{16},,2,7,3,6,{8}4,5h[8:1],4,6/4,3,
{4}2/6>4[8:1],2-5[8:1],{8}5x,6,6,5h[8:1]/7-1[8:1],
,7,2>5[8:1],2,{2}2/1v6[8:1],
{4}5/3h[8:1],4/6h[8:1],5h[8:1]/7V16[4:1],7,
{8}3,2,{4}6/1v4[8:1],{2}8<5[8:1],
{4}2-6[8:1],2/1-5[8:1],1/8-4[8:1],{8}8/7,7h[4:1],
,1,{4}1xh[4:1],2h[4:1],4,
5bx/3bxh[8:1],4bx/6bxh[8:1],7bx/5bxh[8:1],{8}2/8h[8:1],4b>1[8:1],
{16},,B5,B6,B7,B8,{8}B1,{2}2bxpp2[4:1],
6bpp6[4:1],{8}3,2,1/5,8-5[8:1],
,8/3,3,2,{2}1bpp1[4:1],
5bpp5[4:1],{8}2,3,4/6,5-7[8:1],
,5b,1bw5b[8:1],7,{2}1bqq2[4:1],
5qq6[4:1],{8}1,2,3,4h[4:1],
{16},,,,5,4,5,4,6,3,6,3,7,2,8,1,
{4}8,8bx,{8}1bx,1bx,8bx/1,8<5[8:1],
,8/1,2,3,4>1[8:1],5,{4}4/6,
5h[4:1],{8}1,2,{4}2/6h[4:1],{8}3,7,
5,6/2,8,7/4,6h[8:1],1,3-5[8:1],5-7[8:1],
3b/7-4-2[4:1],,,,,7,5-3[8:1],3-1[8:1],
5b/1-4-6[4:1],,,,,1/5,3,4/6,
8,7/2,4,2/6,8,7/3,1x-3[8:1],1x-7[8:1],
1x-4[8:1],1x-6[8:1],1x,1x,,2,2>5[8:1],5-2[8:1],
2V48[4:1],,,,,6b-1[8:1],8,6,
8b-3[8:1],1x,8,7,,2/8,4bx,5/7,
8bx,3/1,4bx,5/7,8bx,1/3,{4}4bx,
4bx-2[8:1]/5bx-2[8:1],4bx-7[8:1]/5bx-7[8:1],5b/4b,1-3[8:1]*-5[8:1],
1-4[8:1]*-6[8:1],1-5[8:1]*-7[8:1],1-4[8:1]*-6[8:1],1,
{16}5x,5x,5x,5x,{8}6/4,7/3,2h[8:1],8h[8:1],2h[8:1],8h[8:1],
3bx,6bx,3bx,6bx,1h[8:1],7h[8:1],1h[8:1],7h[8:1],
,3h[4:1],6,7,8,{16}3x,2x,{4}1x/8-6[8:1]*-4[8:1],
8-5[8:1]*-3[8:1],8-4[8:1]*-2[8:1],{2}8-5[8:1]*-3[8:1],
{16}4b,4,4,4,{8}5/3,6/2,7h[8:1],1h[8:1],7h[8:1],1h[8:1],
6bx,3bx,6bx,3bx,8h[8:1],2,2/8,7b/1b,
{16},,1,8,{4}2pp5[2:1],{2}7/2,
{8}1,1,8,8/4,4,4/7,3,3/6,
{16},,4,5,{8}3,3,{4}6<3[4:1],6/3,
4h[4:1],5h[4:1],{8}2b-4-7[4:1],2,,6V85[4:1],
,6,,3,{4}3>7[4:1],7-1-3b[4:1],
6,7V53b[4:1],{8}7/3,3,2,2<8[8:1],
{16},,6,5,{8}4,1xh[8:1],{4}3-7b[8:1],5b/3b,
8-4[8:1],2,{8}3/5x,3h[4:1],,5h[8:1],
,3,2/6,1,{4}4/8h[4:1],6b,
7/1h[4:1],5h[4:1],{8}3,4/2,1,6h[4:1],
{16},,8,7,{8}1,1,2/8,{16}3,7,{4}4,
E6,E2,E5,E1,
B6/E6/B5,B1/B2/E2,B7/B8/E8,B3/E4/B4,
{32}E8,B7,{16}B6,{32},,,,E2,B2,{16}B3,{32},,,,E8,B7,{16}B6,{32},,,,E2,B2,{16}B3,{32},,,,8x,
7x,{16}6x,{32},,,,1x,2x,{16}3x,{32},,,,8x,7x,{16}6x,{32},,,,1x,2x,{16}3x,{32},,,,8bx,
7,{16}6,{32},,,,1bx,2,{16}3,{32},,,,8bx,7,{16}6,{32},,,,1bx,2,{16}3,{32},,,,8bx,
7,{16}6,{32},,,,7bx,6,{16}5,{32},,,,1bx,2,{16}3,{32},,,,2bx,3,{16}4,{32},,,,8b/3h[16:1],
7,{16}6,{32},,,,7b/2h[16:1],6,{16}5,{32},,,,6b/1h[16:1],5,{16}4,{32},,,,2b,3,4,5,,,,,7b,
6,5,4,,,,,2b,3,4,5,,,,,8b/4b,7b/3b,6b/2b,5b/1b,,,,,{4}B6/B5/B1h[4:1]/B2h[4:1],
,B7/B8/B3h[4:1]/B4h[4:1],{8}6,7,8,1-4[8:1],
,1/7,6,5,{2}5q7[4:1],
1q3[4:1],{8}4,5,6,7>2[8:1],
,3,3-7[8:1],4,{2}3bx/5bw1[8:1],
4bxw8[8:1],{8}B7,B5,B3,B1,
,8h[8:1],{16}1,7,2,6,3,5,4,6,{8}3,{16}7,2,
{4}8<2[4:1],8b,{8}1>7[4:1],1,{4}1b,
8,{8}8-6[8:1],1,8,2,4-2[8:1],5,
{4}4,7>2[8:1],4,{8}3-5[8:1],8,
3,7,8-2[8:1],3,{4}8,3,
{8}3h[4:1],5,6h[4:1],1,3h[4:1],8,1h[4:1],4,
5h[4:1],7,6h[4:1],4,3,7bxh,1-7[8:1],7-5[8:1],
1b/5-2-4[4:1],,,,,5,3-5[8:1],5-7[8:1],
3b/7v6-1[4:1],,,,,1x,1/7x-4[8:1],6,
7/2-5[8:1],3,2/5,8,7/4x,6,2b-4[8:1],7b-5[8:1],
2-6[8:1],7-3[8:1],2,7,,2h[4:1],4,6,
7/1,2,8/3,4,,5-2[8:1],3,5,
3-8[8:1],1,3b,7,,6/2,7bx,8/3,
2bx,6/1,7bx,8/3,2bx,6/1,{4}7b,
1b-3b[8:1]/8b-3b[8:1],1b-6b[8:1]/8b-6b[8:1],1b/8b,5xh[8:1],
{32}3b,4bx,{16}5bx,{32},,,,3b,4bx,{16}5bx,{32},,,,3b,4bx,{16}5bx,{32},,,,3b,4bx,{16}5bx,,,6,
2,5,3,{8}4bx/2bx,3bx/5bx,7h[16:1]/1h[16:1],1h[16:1]/7h[16:1],6h[16:1]/2h[16:1],2h[16:1]/6h[16:1],
5b,4b,3b,5b,6h[16:1]/4h[16:1],4h[16:1]/6h[16:1],7h[16:1]/3h[16:1],3h[16:1]/7h[16:1],
{16},,2,1,{4}8z4[4:1],{8},C,{4}3h[4:1],
{32}7b,6b,{16}5b,{32},,,,7b,6b,{16}5b,{32},,,,7b,6b,{16}5b,{32},,,,7b,6b,{16}5b,,,4,
3,2,1,{8}8/4,6/2,7h[16:1]/1h[16:1],6h[16:1]/2h[16:1],5h[16:1]/3h[16:1],4h[16:1],
5bh[8:1],3bh[8:1],6bh[8:1],2b,3,5,5/3,7h[8:1]/1h[8:1],
{16},,8,8,{8}8,1,6h[16:1]/2h[16:1],7h[16:1]/3h[16:1],8h[16:1]/4h[16:1],5h[16:1]/1h[16:1],
{32}8-2[8:1],7,{16}6,{8}3,8,5,4,3,2,{32}1b/8b,7/2,6/3,5/4,
,,,,{8}B6/B7/Ch[8:1],{4}8xh[4:3],1b,2b,
{8}3,3/7,3,6/3,3,5/3,3,3/4h[4:1],
{16},,3,2,{8}1,1,1,5,{4}1>1-3-5<6-8-2-4-6<7-1[4:13],
{32}B8f,C,{16}B4,{1},,,{8},{4}5h[4:3],
,,1h[4:3],
,,7h[#0.8867035],
{8},,,,(135)2-4[8:1],2,2bx/6bx,5h[8:1],
2-8[8:1],2,2bx/6bx,7,2/8-6[8:1],8,8/3,3h[8:1],
6,1,7-3[8:1],6,5-1[0.4444##0.2222],4,3,2,
4>1[8:1],{16}6,6,{8}4,7,7-3[8:1],1-5[8:1],7,1,
,7,{4}7<5[8:1]/3>1[8:1],3/7v4[8:1],7>1[8:1]/3<5[8:1],
7/3v8[8:1],3,{8}7-1[8:1],1-6[8:1]*-4[8:1],{4}7,
{8},3,7-5[8:1],5-7[8:1],7V53[4:1],,,3,
{16},,2-4[8:1],2,{8}5,2,5b,{16}5,5,6,6,7,7,
8,8,1,1,2>8v5[1:1]*>8v1[1:1],2,3,3b,
E
