&title=Assault and Punishment
&artist=「バルドスカイ」 Original Sound Track
&first=-0.005
&des=Tane
&freemsg=「バルドスカイ」 Original Sound Track
&wholepm=
&des_1=Tane
&des_2=Tane
&des_3=Tane
&des_4=Tane
&des_5=Tane
&lv_4=10
&lv_5=12+
&inote_4=(146){1},,
{6}4,4,,,,,
{6}5,5,,,,,
{6}5,5,,,,,
{6}4,4,,,,,
{6}5,5,,,,,
{6}4,4,,,,,
{6}4,4,,,,,
{6}5,5,,,,,
{12}4^1[4:2],,4,{8},,
,,,,
{12}5^8[4:2],,5,{8},,
,,,,
{12}4-1[4:2],,4,{8},,
,,,,
{12}5-8[4:2],,5,{8},,
,,,,
{12}4^1[4:2],,4,{8},,
5,,5,,
{12}5^8[4:2],,5,{8},,
4,,4,,
{12}4-1[4:2],,4,{8},,
5,,5,,
{12}5-8[4:2],,5,{8},,
4,,4,,
{12}45,,4^1[8:3],
{8},,
6,,7,,
{16}7,,7,8,
,,6,,
7,,7,8,
,,5,,
{12}54,,5^8[8:3],
{8},,
3,,2,,
{16}2,,2,1,
,,3,,
2,,2,1,
,,4,,
{12}34,,4^1[8:3],
{8},,
6,,7,,
{16}7,,7,8,
,,6,,
7,,7,8,
,,5,,
{12}65,,5^8[2:1],
{8},,
3,,2,,
{16}34,,5,,
,3,,,
7,,,1,
,,8<1[8:5],,
{8},,,,
,,,,
>>chorus
{16}3-8[8:1]/4-8[8:1],,,,
,,,,
6-1[8:1]/5-1[8:1],,,,
,,,,
{8}3,,2-6[8:1],,
1,,8,,
{4}78,5,12,4,
{16}78,,,,
12,,,,
3b,,,4b,
,,5b,,
{4}6^3[4:2],,1,,
{4}3^6[4:2],,8,,
{4}56,8,34,1,
{16}12,,,,
78,,,,
7,8,,2,
1,,,,
{16}6-1[8:1]/5-1[8:1],,,,
,,,,
3-8[8:1]/4-8[8:1],,,,
,,,,
{8}6,,7-3[8:1],,
8,,1,,
{4}21,4,87,5,
{16}21,,,,
87,,,,
6b,,,5b,
,,4b,,
{4}3^6[4:2],,8,,
{4}6^3[4:2],,1,,
{4}43,1,65,8,
{16}87,,,,
21,,,,
2,1,,7,
8,,,,
>>ridge
{16}7^4[8:1],,,1,
,,1,,
2^5[8:1],,,8,
,,8,,
{16}7,4,,3,
,,3,,
2,5,,6,
,,6,,
{16}7-4[8:1],,,3,
,,3,,
2-5[8:1],,,6,
,,6,,
{16}6,5,,7,
,,7,,
3,4,,2,
,,2,,
{16}2^5[8:1],,,5,
,,6,,
7^4[8:1],,,4,
,,3,,
{16}1^4[8:1],,,5,
,,6,,
8^5[8:1],,,4,
,,3,,
{16}3h[8:3],,,,
,,4,3,
4^6[8:1],,,,
,,,,
{16}6h[8:3],,,,
,,5,6,
5^3[8:1],,,,
,,,,
{16}6^1[8:1],,,4,
,,4,,
3^8[8:1],,,5,
,,5,,
{16}6,1,,2,
,,2,,
3,8,,7,
,,7,,
{16}6-1[8:1],,,2,
,,2,,
3-8[8:1],,,7,
,,7,,
{16}7,8,,6,
,,6,,
2,1,,3,
,,3,,
{16}3^8[8:1],,,8,
,,7,,
6^1[8:1],,,1,
,,2,,
{16}4^1[8:1],,,8,
,,7,,
5^8[8:1],,,1,
,,2,,
{16}1/8^5[8:4],,,,
,,3,,
,,,,
,,,,
{16}8/1^4[8:4],,,,
,,6,,
,,,,
,,,,
>>outro
{4}4h[2:3]/5,,,,
{4}3h[2:3],,,,
{4}2h[2:2],,,,
{4}1h[8:6],,2h[8:2],,
{4}5h[2:3]/4,,,,
{4}6h[2:3],,,,
{4}7h[2:2],,,,
{4}8h[8:6],,7h[8:2],,
{16}4/1^4[8:1],,,,
7,,8^5[8:1],,
,,4,,
3,,,,
{16}4/2^5[8:1],,,,
8,,7^2[8:1],,
,,4,,
3,,,,
{16}6/3^6[8:1],,,,
8,,1^6[8:1],,
,,4,,
3,,,,
{4}7h[4:1]/8h[4:1],,1h[4:1]/2h[4:1],,
{16}5/8^5[8:1],,,,
2,,1^4[8:1],,
,,5,,
6,,,,
{16}5/7^4[8:1],,,,
1,,2^7[8:1],,
,,5,,
6,,,,
{16}3/6^3[8:1],,,,
1,,8^3[8:1],,
,,5,,
6>7[2:2],,,,
{8},,,,
,,,,
(1){1},E
&inote_5=(146){1},,
{6}4>6[8:24],4,,,,,
{6}5,5,,,,,
{6}5,5,,,,,
{6}4,4,,,,,
{6}5<3[8:24],5,,,,,
{6}4,4,,,,,
{6}4,4,,,,,
{6}5,5,,,,,
{12}4>6[8:5],,4,{8},,
6,,5,,
{16}5<2[8:3],,,,
{8}2,,
4-1[8:1],,5,,
{12}5<3[8:5],,5,{8},,
3,,4,,
{16}4>7[8:3],,,,
{8}7,,
5-8[8:1],,4,,
{12}4<2[8:4],,3,
{8},,
2<5[8:3],,3,,
1^4[4:1],,4^7[8:1],,
8-5[8:1],,1,,
{12}5>7[8:4],,6,
{8},,
7>4[8:3],,6,,
8^5[4:1],,5^2[8:1],,
1-4[8:1],,8,,
{12}45,,4^1[8:4]/5,
{8},,
6,,7,,
{16}7,8,5,4,
7,,68,,
1,,28,,
3,,4,,
{12}54,,5^8[8:4]/4,
{8},,
3,,2,,
{16}2,1,4,5,
2,,31,,
8,,71,,
6,,5,,
{12}34,,4^1[8:4]/5,
{8},,
6,,7,,
{16}7,8,5,4,
1,,28,,
8,,17,,
6,,5,,
{12}65,,5^8[2:1]/4,
{8},,
3,,2,,
{16}34,,6,5,
,2,4,,
7,5,,2,
1,,7,8<1[8:5],
{8},,,,
,,,,
{16}5/3,,2,4,
1,8,1,,
6/4,,7,5,
8,1,8,,
{16}3,4,1,,
6,5,8,,
2,4,1,8,
1,7,5,,
{16}46,,3,4,
2,5,2,,
35,,6,5,
7,4,7,,
{16}2,8,5,,
7,1,4,,
2b/5,,,8/5b,
,,1b/6,,
{16}2,1,4,6,
3,,2,,
2,4,,4,
2,,1,,
{16}7,8,5,3,
6,,7,,
7,5,,5,
7,,8,,
{16}2-5[8:1],4,,8,
2,,8,,
7-4[8:1],5,,1,
7,,1,,
{16}3,4,2,5,
1,6,8,7,
5,6,4,7,
3,8,2,,
{16}2,1,5,7,
1,8,1,,
3,7,,7,
3,,25,,
{16}7,8,4,2,
8,1,8,,
6,2,,2,
6,,74,,
{16}53,,6,4,
7,5,8,,
64,,3,5,
2,4,1,,
{16}6,1,4,,
3,8,5,,
7b/4,,,1/4b,
,,8b/3,,
{16}2,1,4,6,
3,,2,,
2,4,,4,
2,,1,,
{16}7,8,5,3,
6,,7,,
7,5,,5,
7,,8,,
{16}7-4[8:1],5,,8,
7,,1,,
2-5[8:1],4,,1,
2,,8,,
{16}6,5,7,4,
8,3,1,2,
4,3,5,2,
6,1,7,,
{16}7-4[8:1],,,4,
4,,3,,
2-5[8:1],,,5,
5,,6,,
{16}7,4,,3,
,2,5,,
2,5,2,5,
3,4,2,,
{16}8p4[8:1],,,1,
1,,2,,
1q5[8:1],,,8,
8,,7,,
{16}6,8,,2,
,3,1,,
7,4,7,4,
6,5,7,,
{16}2,4,3,4,
3,,2,,
7,5,6,5,
6,,7,,
{16}2,4,2,4,
3,5,2,,
7,5,7,5,
6,4,7,,
{16}2,4,3,5,
4,6,4,6,
2,4,3,5,
4,6,4,6,
{16}1,7,2,8,
3,1,2,1,
2,8,1,7,
8,6,8,7,
{16}1^4[8:1],1,,6,
,7,7,,
8^5[8:1],8,,3,
,2,2,,
{16}2,1,3,8,
4,6,3,5,
3,4,2,5,
1,7,8,,
{16}6^1[8:1],6,,1,
,2,2,,
3^8[8:1],3,,8,
,7,7,,
{16}6,5,7,4,
8,2,7,1,
7,8,6,1,
5,3,4,,
{16}3,5,2,6,
3,5,2,6,
1,7,2,6,
1,7,2,6,
{16}4,6,3,7,
4,6,3,7,
2,8,3,7,
2,8,3,7,
{16}1,7,2,6,
3,4,3,4,
6,4,6,4,
3,4,3,4,
{8}2^5[2:1],,,,
,,,,
{16}45,,,,
6,,5,6,
,5,6,,
7,,,,
{16}34,,,,
2,,4,2,
,4,2,,
1,,,,
{16}56,,,,
7,,5,7,
,5,7,,
6,,,,
{16}45,,,,
3,,4,3,
,4,3,,
2,,3,,
{16}4,,5,,
6,,5,6,
,4,7,,
8-4[8:1],,,,
{16}3,,3,,
3,,4,3,
,5,2,,
1-5[8:1],,,,
{16}6,,6,,
6,,4,7,
,3,8,,
7^4[8:1],,,,
{16}3,,3,,
3,,5,2,
,6,1,,
8,,7,,
{16}6/8^5[8:1],,1,,
2,,3,4,
,4^1[8:1],3,,
6,,8,,
{16}2/8^3[8:1],,7,,
6,,6,5,
,4^7[8:1],5,,
3,,2,,
{16}1^6[8:1]/8,,2,,
3,,3,4,
,6^3[8:1],5,,
7,,8,,
{16}8,,2,1,
2,,3,,
8,1,7,1,
8,,2,,
{16}3/1^4[8:1],,8,,
7,,6,5,
,5^8[8:1],6,,
3,,1,,
{16}7/1^6[8:1],,2,,
3,,3,4,
,5^2[8:1],4,,
6,,7,,
{16}8^3[8:1]/1,,7,,
6,,6,5,
,3^6[8:1],4,,
2,,1,,
{16}1,,7,8,
7,,6,,
1,1,8,8,
2,7,1,8,
(1){1},E
