&title=アリス?
&artist=R Sound Design
&first=0
&des=Alice?
&lv_5=12+
&inote_5=(172)
{1},
{16}6,,5,,3,,4h[4:1],,7,6,5,,,,,,
{16}3,,4,,6,,5-8[8:1],,,,1,2,3,,,,
{8}3h[8:3],,4,4h[8:3],,5,5h[8:3],,
{8}6,6h[8:3],,3,3-5[8:1],,6,,
{8}6h[8:3],,5,5h[8:3],,4,4h[8:3],,
{8}3,3h[8:3],,4,4-6[8:1],,2,,
{8}2h[8:3],,4,4h[8:3],,5,5h[8:3],,
{8}7,7h[8:3],,4,4-7[8:1],,8,,
{8}8h[8:3],,6,6h[8:3],,4,4h[8:3],,
{8}2,2h[8:3],,4,4-8[8:1],1,2,3,
{8}4-8-6[4:1],,6v4[16:3],,,5,5,,
{8}4/6h[4:1],,3,3<6[8:1],,8,8,,
{8}4>1[8:1],,7,6,5<8[8:1],,1,2,
{8}3>3[8:3],,7h[8:3],,,,7,,
{8}2<7[8:1],,7pp2[8:3],,,5,5,,
{8}6>3[8:1],,3pp6[8:3],,,2,2,,
{8}1-5[8:1],,6,7,8-4[8:1],,4,3,
{8}2>2[8:3],,6h[8:3],,,,6,,
{8}5h[4:1]/7h[4:1],,,4h[4:1]/6h[4:1],,,3/5h[4:1],,
{8}1V38[4:1],4-7[8:1],1,4,,7,6,5,
{8}4h[4:1]/2h[4:1],,,5h[4:1]/3h[4:1],,,6/4h[4:1],,
{8}8V61[4:1],5-2[8:1],8,5,,8,7,6,
{8}5h[4:1]/3h[4:1],,,4h[4:1]/2h[4:1],,,1/5h[4:1],,
{8}8V27[4:1],6-3[8:1],8,6,,1,2,3,
{8}4h[4:1]/6h[4:1],,,5h[4:1]/7h[4:1],,,8/4,,
{8}2-7-1[4:1]/6-3-5[4:1],,,,,3h[8:1]/7h[8:1],,,
{8}6h[4:1]/5,,4,3/5h[4:1],,3,2/4h[4:1],,
{8}1-5[8:1],6pp4[16:5],1,6,,,3h[4:1],,
{8}8<5[8:1],,4<7[8:1],2,8<5[8:1],,4<7[8:1],2,
{8}8<5[8:1],,4>5[8:3],2,8h[4:1],,,,
{8}7-5[8:1]/3,,5,4-1[8:1],4,,6,,
{8}7-3[8:1]/3,,2,1-4[8:1],1,,7h[4:1],,
{8}4qq5[8:3],,6pp5>5[8:7],,,,,,
{8}1h[4:1],,,,1p5[8:1]*q5[8:1],,,,
{8}3h[4:1]/4,,5,6/4h[4:1],,6,7/5h[4:1],,
{8}8-4[8:1],3qq5[16:5],8,3,,,6h[4:1],,
{8}1>4[8:1],,5>2[8:1],7,1>4[8:1],,5>2[8:1],7,
{8}1>4[8:1],,5<4[8:3],7,1h[4:1],,,,
{8}2V41[8:2]/6,,4,5-8[8:1],5,,1,,
{8}2V41[8:2]/6,,7,8-5[8:1],8,,2h[4:1],,
{8}6pp4[8:3],,3qq5[8:3],,,,,,
{8}6>7[2:1]*<5[2:1],,,,,,,,
{8}6h[8:3],,5,5h[8:3],,4,4h[8:3],,
{8}3,3h[8:3],,6,6-8-4[4:1],,,,
{8}3h[8:3],,4,4h[8:3],,5,5h[8:3],,
{8}6,6h[8:3],,3,3V58[4:1],,,,
{8}7h[8:3],,5,5h[8:3],,4,4h[8:3],,
{8}2,2h[8:3],,1,1-4[8:1],,,,
{8}2h[8:3],,4,4h[8:3],,6,6h[8:3],,
{8}8,8h[8:3],,3,3<2[8:3],,6-2[8:1],,
{8},,3,3,,4,5/2h[4:1],,
{8}6-4[8:1],,3,3,,7,6/5h[4:1],,
{8}8-6[8:1],,4,4,,5,4/2h[4:1],,
{8}4-8[8:1],,1,1,,3,4/7h[4:1],,
{8}5>2[8:1],,7qq5[16:3],7,,1,1h[4:1],,
{8}4<7[8:1],,2pp4[16:3],2,,8,8h[4:1],,
{8}4>1[8:1],,8q5[16:3],8,,2,2h[4:1],,
{8}5<8[8:1],,1p4[16:3],1,,8,7,6,
{8}3h[4:1]/5h[4:1],,,4h[4:1]/7h[4:1],,,1h[4:1]/5,,
{8}6>4v7[4:1],8>3[8:1],6,8,,7,6,5,
{8}2h[4:1]/4h[4:1],,,1h[4:1]/5h[4:1],,,3/7h[4:1],,
{8}4>2v5[4:1],6<1[8:1],4,6,,4,3,2,
{8}1h[4:1]/7h[4:1],,,3h[4:1]/4h[4:1],,,2h[4:1]/6,,
{8}7<5v8[4:1],1>4[8:1],7,1,,8,7,6,
{8}1h[4:1]/5h[4:1],,,3h[4:1]/7h[4:1],,,15,,
{8}3>1v4[4:1]/7<5v8[4:1],,,,,2h[8:1]/6h[8:1],,,
{8}3h[4:1]/5,,7,4h[4:1]/6,,8,5h[4:1]/7,,
{8}8<5[8:1],4qq1[16:5],8,4,,,7h[4:1],,
{8}4>1[8:1],,8v3[8:1],6,4>1[8:1],,8v3[8:1],6,
{8}4>1[8:1],,8<1[8:3],6,4h[4:1],,,,
{8}2-5[8:1],,5-3[8:1],6,7-5[8:1],,17,,
{8}2-5[8:1],,5-1[8:1],6,7-4[8:1],,78,,
{8}3qq5[8:3],,6pp4>4[8:7],,,,,,
{8}1h[4:1],,,,1pp3[8:1]*qq7[8:1],,,,
{8}6h[4:1]/4,,2,5h[4:1]/3,,1,4h[4:1]/2,,
{8}1>4[8:1],5pp8[16:5],1,5,,,2h[4:1],,
{8}5<8[8:1],,1v6[8:1],3,5<8[8:1],,1v6[8:1],3,
{8}5<8[8:1],,1>8[8:3],3,5h[4:1],,,,
{8}2-5[8:1],,5-2[8:1],6,7-4[8:1],,17,,
{8}2-5[8:1],,5-1[8:1],6,7-3[8:1],,78,,
{8}1pp4[8:3],,5pp8[8:3],,,,,,
{8}4>5[2:1]*<3[2:1],,,,,,,,
{8}6h[4:1]/4,,5,5h[4:1]/3,,4,4h[4:1]/2,,
{8}1-4[8:1],5pp1[16:5],1,5,,,3h[4:1],,
{8}8<5[8:1],,4v7[8:1],3,1>4[8:1],,5v2[8:1],6,
{8}8<5[8:1],,4>5[8:3],2,8h[4:1],,,,
{8}7<4[8:1]/3,,4<7[8:1],3,2v5[8:1],,28,,
{8}7<4[8:1]/3,,4q8[8:1],3,2q6[8:1],,12,,
{8}7pp5[8:3],,3qq5<5[8:7],,,,,,
{8}8h[4:1],,,,8q4[8:1]*p4[8:1],,,,
{8}3h[4:1]/5,,4,4h[4:1]/6,,5,5h[4:1]/7,,
{8}8-5[8:1],4qq8[16:5],8,4,,,7h[4:1],,
{8}1>4[8:1],,5v2[8:1],6,7<4[8:1],,3v6[8:1],2,
{8}1>4[8:1],,5<4[8:3],6,7h[4:1],,,,
{8}2>5[8:1]/6,,5>2[8:1],6,7v4[8:1],,71,,
{8}2>5[8:1]/6,,5p1[8:1],6,7p3[8:1],,87,,
{8}1pp5[8:3],,8qq4[8:3],,,,,,
{8}1>8[2:1]*<2[2:1],,,,,,,,
{8}6h[8:3],,5,5h[8:3],,4,4h[8:3],,
{8}3,3h[8:3],,1,1-7[8:1]*v4[8:1],,,,
{8}3h[8:3],,4,4h[8:3],,5,5h[8:3],,
{8}6,6h[8:3],,5,5-8[8:1]*p1[8:1],,,,
{8}7h[8:3],,5,5h[8:3],,4,4h[8:3],,
{8}2,2h[8:3],,5,5v3[8:1]*-1-7[4:1],,,,
{8}2h[8:3],,,4h[8:3],,,6h[8:3],,
{8},8h[8:3],,,2b<6[8:1]*v4[8:1],,,,
