&title=滚木
&artist=强鼠翔
&first=0.14
&des=?
&lv_5=15
&inote_5=(175)
{1},,,,,,,,,,,,,,,,,,,,,,,,,,,,,,,,,,,,,,,,,,,,,,,,,,,,,,,,,,,,,,,,,,,,,,,,,,,,,,,,,,,,,,,,,,,,,,,,,,,,,,,,,,,,,,,,,,,,,,,,,,,,,,,,,,,,,,,,,,,,,,,,,,,,,,,,,,,,,,,,,,,,,,,,,,,,,,,,,,,,,,,,,,,,,,,,,,,,
{128}1,1,1,1,1,1,1,1,
{128}1,1,1,1,1,1,1,1,
{128}1,1,1,1,1,1,1,1,
{128}1,1,1,1,1,1,1,1,
{128}1,1,1,1,1,1,1,1,
{128}1,1,1,1,1,1,1,1,
{128}1,1,1,1,1,1,1,1,
{128}1,1,1,1,1,1,1,1,
{128}1,1,1,1,1,1,1,1,
{128}1,1,1,1,1,1,1,1,
{128}1,1,1,1,1,1,1,1,
{128}1,1,1,1,1,1,1,1,
{128}1,1,1,1,1,1,1,1,
{128}1,1,1,1,1,1,1,1,
{128}1,1,1,1,1,1,1,1,
{128}1,1,1,1,1,1,1,1,
{128}1,1,1,1,1,1,1,1,
{128}1,1,1,1,1,1,1,1,
{128}1,1,1,1,1,1,1,1,
{128}1,1,1,1,1,1,1,1,
{128}1,1,1,1,1,1,1,1,
{128}1,1,1,1,1,1,1,1,
{128}1,1,1,1,1,1,1,1,
{128}1,1,1,1,1,1,1,1,
{128}1,1,1,1,1,1,1,1,
{128}1,1,1,1,1,1,1,1,
{128}1,1,1,1,1,1,1,1,
{128}1,1,1,1,1,1,1,1,
{128}1,1,1,1,1,1,1,1,
{128}1,1,1,1,1,1,1,1,
{128}1,1,1,1,1,1,1,1,
{128}1,1,1,1,1,1,1,1,
{128}1,1,1,1,1,1,1,1,
{128}1,1,1,1,1,1,1,1,
{128}1,1,1,1,1,1,1,1,
{128}1,1,1,1,1,1,1,1,
{128}1,1,1,1,1,1,1,1,
{128}1,1,1,1,1,1,1,1,
{128}1,1,1,1,1,1,1,1,
{128}1,1,1,1,1,1,1,1,
{128}1,1,1,1,1,1,1,1,
{128}1,1,1,1,1,1,1,1,
{128}1,1,1,1,1,1,1,1,
{128}1,1,1,1,1,1,1,1,
{128}1,1,1,1,1,1,1,1,
{128}1,1,1,1,1,1,1,1,
{128}1,1,1,1,1,1,1,1,
{128}1,1,1,1,1,1,1,1,
{128}1,1,1,1,1,1,1,1,
{128}1,1,1,1,1,1,1,1,
{128}1,1,1,1,1,1,1,1,
{128}1,1,1,1,1,1,1,1,
{128}1,1,1,1,1,1,1,1,
{128}1,1,1,1,1,1,1,1,
{128}1,1,1,1,1,1,1,1,
{128}1,1,1,1,1,1,1,1,
{128}1,1,1,1,1,1,1,1,
{128}1,1,1,1,1,1,1,1,
{128}1,1,1,1,1,1,1,1,
{128}1,1,1,1,1,1,1,1,
{128}1,1,1,1,1,1,1,1,
{128}1,1,1,1,1,1,1,1,
{128}1,1,1,1,1,1,1,1,
{128}1,1,1,1,1,1,1,1,
{128}1,1,1,1,1,1,1,1,
{128}1,1,1,1,1,1,1,1,
{128}1,1,1,1,1,1,1,1,
{128}1,1,1,1,1,1,1,1,
{128}1,1,1,1,1,1,1,1,
{128}1,1,1,1,1,1,1,1,
{128}1,1,1,1,1,1,1,1,
{128}1,1,1,1,1,1,1,1,
{128}1,1,1,1,1,1,1,1,
{128}1,1,1,1,1,1,1,1,
{128}1,1,1,1,1,1,1,1,
{128}1,1,1,1,1,1,1,1,
{128}1,1,1,1,1,1,1,1,
{128}1,1,1,1,1,1,1,1,
{128}1,1,1,1,1,1,1,1,
{128}1,1,1,1,1,1,1,1,
{128}1,1,1,1,1,1,1,1,
{128}1,1,1,1,1,1,1,1,
{128}1,1,1,1,1,1,1,1,
{128}1,1,1,1,1,1,1,1,
{128}1,1,1,1,1,1,1,1,
{128}1,1,1,1,1,1,1,1,
{128}1,1,1,1,1,1,1,1,
{128}1,1,1,1,1,1,1,1,
{128}1,1,1,1,1,1,1,1,
{128}1,1,1,1,1,1,1,1,
{128}1,1,1,1,1,1,1,1,
{128}1,1,1,1,1,1,1,1,
{128}1,1,1,1,1,1,1,1,
{128}1,1,1,1,1,1,1,1,
{128}1,1,1,1,1,1,1,1,
{128}1,1,1,1,1,1,1,1,
{128}1,1,1,1,1,1,1,1,
{128}1,1,1,1,1,1,1,1,
{128}1,1,1,1,1,1,1,1,
{128}1,1,1,1,1,1,1,1,
{128}1,1,1,1,1,1,1,1,
{128}1,1,1,1,1,1,1,1,
{128}1,1,1,1,1,1,1,1,
{128}1,1,1,1,1,1,1,1,
{128}1,1,1,1,1,1,1,1,
{128}1,1,1,1,1,1,1,1,
{128}1,1,1,1,1,1,1,1,
{128}1,1,1,1,1,1,1,1,
{128}1,1,1,1,1,1,1,1,
{128}1,1,1,1,1,1,1,1,
{128}1,1,1,1,1,1,1,1,
{128}1,1,1,1,1,1,1,1,
{128}1,1,1,1,1,1,1,1,
{128}1,1,1,1,1,1,1,1,
{128}1,1,1,1,1,1,1,1,
{128}1,1,1,1,1,1,1,1,
{128}1,1,1,1,1,1,1,1,
{128}1,1,1,1,1,1,1,1,
{128}1,1,1,1,1,1,1,1,
{128}1,1,1,1,1,1,1,1,
{128}1,1,1,1,1,1,1,1,
{128}1,1,1,1,1,1,1,1,
{128}1,1,1,1,1,1,1,1,
{128}1,1,1,1,1,1,1,1,
{128}1,1,1,1,1,1,1,1,
{128}1,1,1,1,1,1,1,1,
{128}1,1,1,1,1,1,1,1,
{128}1,1,1,1,1,1,1,1,
{128}1,1,1,1,1,1,1,1,
{128}1,1,1,1,1,1,1,1,
{128}1,1,1,1,1,1,1,1,
{128}1,1,1,1,1,1,1,1,
{128}1,1,1,1,1,1,1,1,
{128}1,1,1,1,1,1,1,1,
{128}1,1,1,1,1,1,1,1,
{128}1,1,1,1,1,1,1,1,
{128}1,1,1,1,1,1,1,1,
{128}1,1,1,1,1,1,1,1,
{128}1,1,1,1,1,1,1,1,
{128}1,1,1,1,1,1,1,1,
{128}1,1,1,1,1,1,1,1,
{128}1,1,1,1,1,1,1,1,
{128}1,1,1,1,1,1,1,1,
{128}1,1,1,1,1,1,1,1,
{128}1,1,1,1,1,1,1,1,
{128}1,1,1,1,1,1,1,1,
{128}1,1,1,1,1,1,1,1,
{128}1,1,1,1,1,1,1,1,
{128}1,1,1,1,1,1,1,1,
{128}1,1,1,1,1,1,1,1,
{128}1,1,1,1,1,1,1,1,
{128}1,1,1,1,1,1,1,1,
{128}1,1,1,1,1,1,1,1,
{128}1,1,1,1,1,1,1,1,
{128}1,1,1,1,1,1,1,1,
{128}1,1,1,1,1,1,1,1,
{128}1,1,1,1,1,1,1,1,
{128}1,1,1,1,1,1,1,1,
{128}1,1,1,1,1,1,1,1,
{128}1,1,1,1,1,1,1,1,
{128}1,1,1,1,1,1,1,1,
{128}1,1,1,1,1,1,1,1,
{128}1,1,1,1,1,1,1,1,
{128}1,1,1,1,1,1,1,1,
{128}1,1,1,1,1,1,1,1,
{128}1,1,1,1,1,1,1,1,
{128}1,1,1,1,1,1,1,1,
{128}1,1,1,1,1,1,1,1,
{128}1,1,1,1,1,1,1,1,
{128}1,1,1,1,1,1,1,1,
{128}1,1,1,1,1,1,1,1,
{128}1,1,1,1,1,1,1,1,
{128}1,1,1,1,1,1,1,1,
{128}1,1,1,1,1,1,1,1,
{128}1,1,1,1,1,1,1,1,
{128}1,1,1,1,1,1,1,1,
{128}1,1,1,1,1,1,1,1,
{128}1,1,1,1,1,1,1,1,
{128}1,1,1,1,1,1,1,1,
{128}1,1,1,1,1,1,1,1,
{128}1,1,1,1,1,1,1,1,
{128}1,1,1,1,1,1,1,1,
{128}1,1,1,1,1,1,1,1,
{128}1,1,1,1,1,1,1,1,
{128}1,1,1,1,1,1,1,1,
{128}1,1,1,1,1,1,1,1,
{128}1,1,1,1,1,1,1,1,
{128}1,1,1,1,1,1,1,1,
{128}1,1,1,1,1,1,1,1,
{128}1,1,1,1,1,1,1,1,
{128}1,1,1,1,1,1,1,1,
{128}1,1,1,1,1,1,1,1,
{128}1,1,1,1,1,1,1,1,
{128}1,1,1,1,1,1,1,1,
{128}1,1,1,1,1,1,1,1,
{128}1,1,1,1,1,1,1,1,
{128}1,1,1,1,1,1,1,1,
{128}1,1,1,1,1,1,1,1,
{128}1,1,1,1,1,1,1,1,
{128}1,1,1,1,1,1,1,1,
{128}1,1,1,1,1,1,1,1,
{128}1,1,1,1,1,1,1,1,
{128}1,1,1,1,1,1,1,1,
{128}1,1,1,1,1,1,1,1,
{128}1,1,1,1,1,1,1,1,
{128}1,1,1,1,1,1,1,1,
{128}1,1,1,1,1,1,1,1,
{128}1,1,1,1,1,1,1,1,
{128}1,1,1,1,1,1,1,1,
{128}1,1,1,1,1,1,1,1,
{128}1,1,1,1,1,1,1,1,
{128}1,1,1,1,1,1,1,1,
{128}1,1,1,1,1,1,1,1,
{128}1,1,1,1,1,1,1,1,
{128}1,1,1,1,1,1,1,1,
{128}1,1,1,1,1,1,1,1,
{128}1,1,1,1,1,1,1,1,
{128}1,1,1,1,1,1,1,1,
{128}1,1,1,1,1,1,1,1,
{128}1,1,1,1,1,1,1,1,
{128}1,1,1,1,1,1,1,1,
{128}1,1,1,1,1,1,1,1,
{128}1,1,1,1,1,1,1,1,
{128}1,1,1,1,1,1,1,1,
{128}1,1,1,1,1,1,1,1,
{128}1,1,1,1,1,1,1,1,
{128}1,1,1,1,1,1,1,1,
{128}1,1,1,1,1,1,1,1,
{128}1,1,1,1,1,1,1,1,
{128}1,1,1,1,1,1,1,1,
{128}1,1,1,1,1,1,1,1,
{128}1,1,1,1,1,1,1,1,
{128}1,1,1,1,1,1,1,1,
{128}1,1,1,1,1,1,1,1,
{128}1,1,1,1,1,1,1,1,
{128}1,1,1,1,1,1,1,1,
{128}1,1,1,1,1,1,1,1,
{128}1,1,1,1,1,1,1,1,
{128}1,1,1,1,1,1,1,1,
{128}1,1,1,1,1,1,1,1,
{128}1,1,1,1,1,1,1,1,
{128}1,1,1,1,1,1,1,1,
{128}1,1,1,1,1,1,1,1,
{128}1,1,1,1,1,1,1,1,
{128}1,1,1,1,1,1,1,1,
{128}1,1,1,1,1,1,1,1,
{128}1,1,1,1,1,1,1,1,
{128}1,1,1,1,1,1,1,1,
{128}1,1,1,1,1,1,1,1,
{128}1,1,1,1,1,1,1,1,
{128}1,1,1,1,1,1,1,1,
{128}1,1,1,1,1,1,1,1,
{128}1,1,1,1,1,1,1,1,
{128}1,1,1,1,1,1,1,1,
{128}1,1,1,1,1,1,1,1,
{128}1,1,1,1,1,1,1,1,
{128}1,1,1,1,1,1,1,1,
{128}1,1,1,1,1,1,1,1,
{128}1,1,1,1,1,1,1,1,
{128}1,1,1,1,1,1,1,1,
{128}1,1,1,1,1,1,1,1,
{128}1,1,1,1,1,1,1,1,
{128}1,1,1,1,1,1,1,1,
{128}1,1,1,1,1,1,1,1,
{128}1,1,1,1,1,1,1,1,
{128}1,1,1,1,1,1,1,1,
{128}1,1,1,1,1,1,1,1,
{128}1,1,1,1,1,1,1,1,
{128}1,1,1,1,1,1,1,1,
{128}1,1,1,1,1,1,1,1,
{128}1,1,1,1,1,1,1,1,
{128}1,1,1,1,1,1,1,1,
{128}1,1,1,1,1,1,1,1,
{128}1,1,1,1,1,1,1,1,
{128}1,1,1,1,1,1,1,1,
{128}1,1,1,1,1,1,1,1,
{128}1,1,1,1,1,1,1,1,
{128}1,1,1,1,1,1,1,1,
{128}1,1,1,1,1,1,1,1,
{128}1,1,1,1,1,1,1,1,
{128}1,1,1,1,1,1,1,1,
{128}1,1,1,1,1,1,1,1,
{128}1,1,1,1,1,1,1,1,
{128}1,1,1,1,1,1,1,1,
{128}1,1,1,1,1,1,1,1,
{128}1,1,1,1,1,1,1,1,
{128}1,1,1,1,1,1,1,1,
{128}1,1,1,1,1,1,1,1,
{128}1,1,1,1,1,1,1,1,
{128}1,1,1,1,1,1,1,1,
{128}1,1,1,1,1,1,1,1,
{128}1,1,1,1,1,1,1,1,
{128}1,1,1,1,1,1,1,1,
{128}1,1,1,1,1,1,1,1,
{128}1,1,1,1,1,1,1,1,
{128}1,1,1,1,1,1,1,1,
{128}1,1,1,1,1,1,1,1,
{128}1,1,1,1,1,1,1,1,
{128}1,1,1,1,1,1,1,1,
{128}1,1,1,1,1,1,1,1,
{128}1,1,1,1,1,1,1,1,
{128}1,1,1,1,1,1,1,1,
{128}1,1,1,1,1,1,1,1,
{128}1,1,1,1,1,1,1,1,
{128}1,1,1,1,1,1,1,1,
{128}1,1,1,1,1,1,1,1,
{128}1,1,1,1,1,1,1,1,
{128}1,1,1,1,1,1,1,1,
{128}1,1,1,1,1,1,1,1,
{128}1,1,1,1,1,1,1,1,
{128}1,1,1,1,1,1,1,1,
{128}1,1,1,1,1,1,1,1,
{128}1,1,1,1,1,1,1,1,
{128}1,1,1,1,1,1,1,1,
{128}1,1,1,1,1,1,1,1,
{128}1,1,1,1,1,1,1,1,
{128}1,1,1,1,1,1,1,1,
{128}1,1,1,1,1,1,1,1,
{128}1,1,1,1,1,1,1,1,
{128}1,1,1,1,1,1,1,1,
{128}1,1,1,1,1,1,1,1,
{128}1,1,1,1,1,1,1,1,
{128}1,1,1,1,1,1,1,1,
{128}1,1,1,1,1,1,1,1,
{128}1,1,1,1,1,1,1,1,
{128}1,1,1,1,1,1,1,1,
{128}1,1,1,1,1,1,1,1,
{128}1,1,1,1,1,1,1,1,
{128}1,1,1,1,1,1,1,1,
{128}1,1,1,1,1,1,1,1,
{128}1,1,1,1,1,1,1,1,
{128}1,1,1,1,1,1,1,1,
{128}1,1,1,1,1,1,1,1,
{128}1,1,1,1,1,1,1,1,
{128}1,1,1,1,1,1,1,1,
{128}1,1,1,1,1,1,1,1,
{128}1,1,1,1,1,1,1,1,
{128}1,1,1,1,1,1,1,1,
{128}1,1,1,1,1,1,1,1,
{128}1,1,1,1,1,1,1,1,
{128}1,1,1,1,1,1,1,1,
{128}1,1,1,1,1,1,1,1,
{128}1,1,1,1,1,1,1,1,
{128}1,1,1,1,1,1,1,1,
{128}1,1,1,1,1,1,1,1,
{128}1,1,1,1,1,1,1,1,
{128}1,1,1,1,1,1,1,1,
{128}1,1,1,1,1,1,1,1,
{128}1,1,1,1,1,1,1,1,
{128}1,1,1,1,1,1,1,1,
{128}1,1,1,1,1,1,1,1,
{128}1,1,1,1,1,1,1,1,
{128}1,1,1,1,1,1,1,1,
{128}1,1,1,1,1,1,1,1,
{128}1,1,1,1,1,1,1,1,
{128}1,1,1,1,1,1,1,1,
{128}1,1,1,1,1,1,1,1,
{128}1,1,1,1,1,1,1,1,
{128}1,1,1,1,1,1,1,1,
{128}1,1,1,1,1,1,1,1,
{128}1,1,1,1,1,1,1,1,
{128}1,1,1,1,1,1,1,1,
{128}1,1,1,1,1,1,1,1,
{128}1,1,1,1,1,1,1,1,
{128}1,1,1,1,1,1,1,1,
{128}1,1,1,1,1,1,1,1,
{128}1,1,1,1,1,1,1,1,
{128}1,1,1,1,1,1,1,1,
{128}1,1,1,1,1,1,1,1,
{128}1,1,1,1,1,1,1,1,
{128}1,1,1,1,1,1,1,1,
{128}1,1,1,1,1,1,1,1,
{128}1,1,1,1,1,1,1,1,
{128}1,1,1,1,1,1,1,1,
{128}1,1,1,1,1,1,1,1,
{128}1,1,1,1,1,1,1,1,
{128}1,1,1,1,1,1,1,1,
{128}1,1,1,1,1,1,1,1,
{128}1,1,1,1,1,1,1,1,
{128}1,1,1,1,1,1,1,1,
{128}1,1,1,1,1,1,1,1,
{128}1,1,1,1,1,1,1,1,
{128}1,1,1,1,1,1,1,1,
{128}1,1,1,1,1,1,1,1,
E
