&title=きらり メモリーズ♪
&artist=イノライ × 森羅万象
&first=0
&des=Holinality
&clock_count=6
&lv_5=12+
&inote_5=(188)
{1}
,,
{8}
E3/A3/E4/E7/A6/E6,,,,,,,,
E6/A5/E4/A4/E5,,,,,,,,
4hx[2:1],,,,6hx[2:2],,,,
3hx[2:1],,,,,,6/3,,
4>1[4:1],,4,,5<8[4:1],,5,,
{16}
1>4[4:1],,,,1/4<7[4:1],,,,
7>2[4:1],,,,4,,,,
{12}
5-7[6:1],,,5/2,,,5-1[6:1],,
,5/3,,,2,,8,,
,3/7,,,6,4,,,
4-2[6:1],,,4/7,,,4-8[6:1],,
,4/6,,,7,,1,,
,6/2,,,3,5,,,
4/6,,,4,,,4/E7/E8,,
,4,,,3/5,,,5,
,5/E3/E2,,,5,3pp1[1:1],,,
3,,,,,,7,,
,,,,7,,,,
,7/1,,,2,5,,,
5/3,,,5,,,5/E3/E2,,
,5,,,6/4,,,4,
,4/E7/E8,,,4,6<1<5[6:5],,,
6,,,,,,3,,
,,,,3,,5,4,
,6/3,,,3,5,,,
1-3[6:1],,,6/1,,,5-7[6:1],,
,5/3,,,2,,8,,
,1/7,,,3,6qq8[1:1],,,
3/6,,,2,,,2,,
,2,,,2,,,1/7,
,6h[12:4],,,4,4,,,
8-6[6:1],,,3/8,,,4-2[6:1],,
,4/6,,,7,,1,,
,8/2,,,6,4>2[6:1],,,
6/4,,,7<5[6:1],,,7/1,,
,4,,,6/4,,5,3,
,2/6,,,4,6pp4[1:1],,,
6b,,,,,,,,
,,,,2h[6:3],,,,
,,,,,5/3,,,
6<1[12:3],,,6/2,,2>5[12:3],,,
2,8x-4[12:3],,,8,,,,
,,2x/6x,,,,,,
3qq5[12:9],,,,,,,,
,,,,7h[6:3],,,,
,,,,,6/4,,,
3h[12:5],,,,,5h[12:4],,,
,4,,,6/3,,7,1,
,,3/8,,,2pp8[1:1]/5,,,
2,,,,,,,,
,,,,6h[12:9],,,,
,,,,,4,,,
5-1[12:3]/3,,,5,,2>5[12:3],,,
2,8q5[6:3]*p3[6:3],,,8bx,,,,
,,,,,,,,
7h[6:3]/4h[12:3],,,,,,,,
,3/6,,,2h[6:3]/5h[12:3],,,,
,,,,,3/6,,7,
4,,,5,,2,,,
2,7h[12:5],,,,,3,3,
,,6/4,,7,7,,,
1/7,,,1,,,1/E6/A6/E7,,
,1,,5,2,,7,4h[12:3],
,,6,,,3/6,,,
1/8,,,2/7,,,3b/6b,,
,3b/6b,,,3b/6b,,,,
{12}
,,8v3[6:1],,2v5[6:1],8>7b[12:6],,2,
8bx,,,,,,1,,
,3/5-7[6:1],,3,5-2[6:1],,,5-8[6:1],
,,5,,,,,,
E7/E6/A6/E4/A3/E3,,,,,,3h[12:3]/5,,
,6,,4,6<1[4:1],,,1>4[4:1],
,,4<7[4:1],,,7>2[4:1],,3,
,,,,,3/8,,,
2,5,,4,7,,1,6,
,3h[12:3],,,8,,,7,
1h[12:3],,,6,,,6/2,,
,5h[12:12]/3,,,E4,,,B4,
,,B5,,,E6,,,
2bx/7bx,,,,,,7/2-5-3-8[6:4],,
,2,,6h[6:3],,,,,
,,,,6,1,,8,
3h[12:3],,,6,,4,7-5[6:1],,
,7/3pp1[6:4],,,3,,,,
,,7,,,,,,
,,,6h[12:3],,,4h[12:3],,
,7pp5[6:4],,,7,,,,
,,3,,,,,3,
5hx[12:9],,,E1/D1,,,E2/D2,,
,E3/D3,,,E4/D4,,,,
,6,4,,,6pp1[12:9],,,
6,,,2,,,3,,
,4h[12:9],,,,,,8,
,,7,,,6/2pp5[12:9],,,
2,,,6,,,7,,
,8h[12:9],,,,,,1,
,,2,,,3/6,,,
7-5[6:1],,,8,,,1-7[6:1],,
,2,,,3-1[6:1],,,4,
,,5-3[6:1],,,6,,,
7-5[6:1],,,7,,,4-8[6:1],,
,4,,,1-3[6:1],,,1,
,,6>3[6:1],,,6,,,
1,,,,,,2/5,,
,7,,4,7-4[4:1],,,4V61[6:2],
,,2,,,,,,
2,,,,,,7/4,,
,2,,5,2-5[4:1],,,5V38[6:2],
,6hx[12:4],,,,,,,
6<8[6:1],,,6/3,,,2>4[6:1],,
,2/7,,,6-8[6:1],,,6/3,
,,2-4[6:1],,,2/7,,,
6h[12:3],,,8,,,2h[12:3],,
,4,,,5/3,,6,4,
,6/4,,,3,5,,,
6/3,,,4,,,6/4,,
5,3,,,2/7,,,,
,8,,,2,7,,,
3h[6:6]/6,,,,,,,,
,5,,,6,,3,,
,5,,,,3/6,,,
3b/6b,,,2,,1b/8b,,,
,7,,,3b/6b,,,
{24}2x,3x,4x,
6x,7x,8x,Cf,,,,,
,,,,,,,,
,,,,,,,,
,,,,,,,,
,,,,,,,,
,,,,,,,,
,,,,,,,,
,,,,,,,,
,,,,,,,,
,,,,,,,,
,,,,,,,,
,,,,,,,,
,,,,,,,,
,,,,,,,,
,,,,,,,,
