&title=猪突猛進ガール
&artist=れるりり/初音ミク/GUMI
&first=0
&des_1=喪心病狂ボーイ
&des_2=喪心病狂ボーイ
&des_3=喪心病狂ボーイ
&des_4=喪心病狂ボーイ
&des_5=喪心病狂ボーイ
&lv_5=14
&des_6=喪心病狂ボーイ
&des_7=喪心病狂ボーイ
&des=喪心病狂ボーイ
&inote_5=(155)
{4},,,,
{16}3,4,3,,2h[16:4]/5,,,,3h[16:3],,,4h[16:3],,,5>7[8:2],,,,,,,,,,3h[16:1],,5h[16:1],,{24}2,3,4,5h[16:1],,,
{16}6h[16:1],,6,,7h[16:4]/4,,,,6h[16:3],,,5h[16:3],,,4<2[8:2],,,,,,,,,,7pp6[16:3],3,7,3,,,,,
{16}3,5,3,,2/4,,,3,5h[8:1],,4h[8:1],,6h[8:1],,3-1[8:1],,,,3,,7,6,5,4,1<5[16:2],2,3,4,,,,,
4,6,4,,7/5,,,6,4h[8:1],,5,5,3,,8bqq4[8:3],,,,,,,,,,,,,,2h`6,,,,
3/5,,3,4,3,,2,4,3,5,4,6h[8:1],,2,,8h[16:1],,3,1,2,8-4[8:1],1,7,8,,,,,5,,3,2,
1h[8:1]/6,,7,8,7,8,6,1,2,3,4,5h[8:1],,7,5,6,4,5,3,4,3>5[16:4],2,3,4h[16:5],,,,,,,,,
6/4,,6,5,6,,7/4,6,5,2,3,4h[16:1],,7,,3,2,6,7,8,1-5[8:1],2,3,4,,,,,4,,6,7,
8h[8:1]/2,,3,1,2,1,3,8,7,6,5,4h[8:1]/3,,2,,15,,,37,,6pp1[16:4],6,,4h[16:3],,,,,2b-4[8:1],,,,
2-6[8:1]/7-1[8:1],,,,2-4[8:1],,,,2-6[8:1]/7,,6,,2>4[8:1]/5,6,7,8,2-6[8:1]/1-5[8:1],,,,2>4[8:1],,,,2,,5qq5[4:1],,,6pp5[8:3],,,
6,,,,,,,8,1,2,3,4,7/5,6,5,4,1-5[16:2],,2,,1/7-4[8:1],,6,,7/3-8[8:1],,,,3,,,,
7-3[8:1],,,8,7,,8,,1>4[8:1]/4<7[8:1],,,,,,,,8,,73,,3>5[16:6],5p4[16:5],,3,,,,,,,,,
2/5,,3,4,3,,3,,7/4,,6,5,6,5,6,5,7/4,,6/3,,5pp8[8:2]/2pp5[8:2],5/2,,5b/2b,,,,,,,,,
7-3[8:1]/3,,5,,3V16[16:3]/7,,5,,4,,4h[16:1],,,3,2,1,7,6,5,4,7,6,5,4,8<6[8:1],3,1,2,,,3,4,
5,,7,6,7,,6,5,6,,5,4,5,,3,4,3,5,2h[16:2],,3qq2[16:3],,,2<4[16:3],,,,,4b,,,,
2-6[8:1]/6,,8,,6V41[16:3]/2,,4,,7,,7h[16:1],,,6,5,4,2,1,4,5,2,1,4,5,3V15[16:3],6,4,5,,,6,7,
8,,2,3,2,,3,4,3,,4,5,4,,7,5,6-1[8:1],4,5,,6/2-5[8:1],2,,,4-8[8:1],,,,,,,,
{12}3,4,2h[24:1],6,5,7h[24:1],{24}1,2,3,4,5,6,2,3,4,5,6,7,8bw4[2:1]/4,,,,,,,,,,,,,,,,,,,,,,,,
(77.5)
{12}
5<1[16:3],4,4,5/3h[:1],,,{16}3<7[16:3],,,2,3/1h[8:1],,,,{12}
1>5[16:3],8,8,1/7h[8:1],,,{16}7>3[16:3],,,6,7/5h[8:1],,,,{12}
4V28[16:3],5,5,4/6h[8:1],,,{16}6V42[16:3],,,7,6/8h[8:1],,,,{12}
8qq4[16:3],1,1,8/2h[8:1],,,{16}2qq5[16:3],,,3,2/4h[8:1],,,,
6V83[4:1],,2,2,6/3p8[16:4],,,,2,,1h[16:1],,,4h[32:1],4,5/2,3qq5[16:3]/6h[16:1],,7,7,,6h[32:1],6,6,7qq8[16:3],7,2,2h[8:1],,,3,3,
2V48[4:1],,6,6,2/8pp4[16:4],,,,6,6,5,5,,7,7,7/2,1p7[4:1]/6h[16:1],,6h[16:1],,7>5[4:1],6h[16:2],,,,6,6,6,7h[16:1],,7,,
2>7[4:1],,6,6,2/7p1[16:4],,8,8,8h[16:1],,8h[16:1],,,7h[32:1],7,7/2,2V48[16:3]/6h[16:1],,6h[16:1],,,7h[32:1],7,6,5p4[16:3],5,3,3h[8:1],,,2,2,
3-7[8:1],,7>5[4:1],7,3,,5-1[8:1],,6,6,7,7,,6,6,6/3,5v3[8:1]/2h[16:1],,3<1[4:1],3,,2h[16:2],,,,2,2,3,4/6,2,5/3,8,
(155)
{8}
6pp4[4:5]/3bqq5[8:4],,,,,,,3h[8:1],
,1h[8:1],,3h[8:1],,1h[8:1],,4h[8:1]/5,
,7h[8:1]/4,,4h[8:1]/5,,5h[8:1]/2,,3h[8:1]/6,
,6h[8:1]/3,,2h[8:1]/7,,7h[8:1]/2,{16},,8h[16:1],,
{16}
1,3,2,4,3,5,4,6,5-3[12:1],7,,5/8,,7h[16:1],,2,8,7,6,5,8,1,2,3,{24}4/8v3[8:1],7,6,5,4,3,8,,,,,,
{16}6,4,5,3,4,2,5,3,6-4[12:1],4,7,6,,7h[8:1],,,3,2,1,8,4,5,6,7,{32}4-1[8:1]*-8[8:1],3,2,1,8,7,6,5,4,,,,{24},,7,
8,,8,7,,1,6,,6,1,,5h[24:3],2-6[8:1],,3h[24:4],,,,,,,,1,,7h[24:2],,2,7h[24:2],,3,7h[24:2],,3-6[12:1],7-2[16:1],,,7/3,,,,,,1h[24:2],,,5h[24:2],,,
8h[24:2],,,4h[24:2],,,7h[24:2],,,3h[24:2],,,6,,6,2,,2,5,,5,1,,1,{16}5bpp6[8:2]*-1[8:1],,,,,,,,,,1>5[8:1],,5p1[8:1],,,,
{16}
8b<6[8:1],,,,8-4[8:1],,,,8<6[8:1]/1,,2,,8-4[8:1]/1,2,3,4,8-6[8:1]/5-1[8:1],,,,8-4[8:1],,,,8,,1V38[4:1],,,7qq4[8:3],,,
7,,,,,,,,8,1,2,3,4/7,6,5,4,3-1[8:1],,2,,3qq3[4:1]/4<7[8:1],,5,,3pp3[4:1]/4,,,,,,,,
8-4[8:1],,,1,8,,1,,2>5[8:1]/5<8[8:1],,,,5-1[8:1],,,,1,,8,,2>8[16:3],7,,6,,,{32},,,,1,2,3,4,5,6,7,8,
{4}1/5b-3[8:1]*-7[8:1],5,1b<6[8:1]*>4[8:1],1,{16}2/6,,3/7,,2-5[8:1]/8qq4[8:2],28,,2b/8b,,,,,,,,,
{16}
2,1,8,7,{24}6,7,8,1,2,3,
{16}
4-8[8:1],,6,,8>4[16:2]/4,,6,,4-8[8:1],,6h[16:1],,,5,6,7,1,2,3,4,1,2,3,4,8<5[8:1],1,2,3,,,1,2,
3,,5,4,5,,3,6,3,,7,2,7,,8,1,7,2,8,1,7pp8[16:3],2,,8<3[16:3],,,,,2b,,,,
8-4[8:1],,2,,4V68[16:2]/8,,2,,8-4[8:1],,2h[16:1],,,1,2,3,5,6,7,8,2,3,4,5,1>4[8:1],8,7,6,,,5,6,
7,,8,3,8,,1,6,1,,5,2,5,,4,5,3,6,4,5,3v5[16:3],6,,5>1[16:3],,,,,6b,,,,
{16}
8<4[8:1],,2,,3<7[16:2]/8,,1,,8v5[8:1],,2h[16:1],,,1,2,3,6,4,6,4,7,3,7,3,7-3[8:1],6,5,4,,5,6,7,
2,,2,3,48,,8,7,62,,2,3,48,5,6,7,8-4[8:1],,1,,8/7<1[4:1],,6,,7/8,,,,4b,,,,
1V35[8:1],,7,,6V42[16:2]/1,,8,,1-5[8:1],,7h[16:1],,,8,7,6,3,4,2,6,5,7,1,4,8v6[8:1],1,2,3,,4,3,2h[16:1],
,,6,7,84,,4,3,26,,6,7,84,1,2,3,4<7[8:1],,2,,4/3V15[4:1],,2,,3/4,,,,7b<8[4:6]*-3[16:2],,,,
{16}
,,,,,,,,,,,,,,,,,,,,,,,,,,,,,,,,
7,8,6,,5/1,,,6,1h[8:1],,8h[8:1],,2h[8:1],,6-8[8:1],,,,6,,4,3,2,1,4qq2[16:2],5,6,7,,,,,
3,4,2,,1/5,,,2,5h[8:1],,4h[8:1],,6h[8:1],,2-4[8:1],,,,2,,8,7,6,5,8p4[16:2],1,2,3,,,,,
3,5,3,,6/4,,,5,3h[8:1],,7-2[8:1],1,5,,7b,
E
