&title=Recollect
&artist=鈴木このみ/Ashnikko
&first=0
&des=『安娜塔西亚』
&lv_5=13+
&inote_5=(145)
{1},
{8}5h[8:3],,,2h[8:3],,,7h[8:4],,,,4qq2[8:3]*pp6[8:3],,,,,,
{4}8h[4:1],2,1h[4:1],7,
4>8[4:1],8<4[4:1],4w8[8:1],,
{4}2/6h[4:1],4,{16}3h[16:3],,,5h[16:3],,,{8}1,
{4}3pp2[8:3]/7pp6[8:3],37,{16},,,,,,3,,
{4}7/3h[4:1],5,{16}6h[16:3],,,4h[16:3],,,{8}8,
{4}6qq1[8:3]/2qq5[8:3],62,{16},,,,3h[8:1],,4,,
{16}2-4[8:1],,,,{8}4,,{16}5h[16:3],,,6h[16:3],,,{8}7,
{16}7-5[8:1],,,,{8}5,,{16}4h[16:3],,,3h[16:3],,,{8}2,
{16}2-6[8:1],,,,{8}6,,{16}5h[16:3],,,4h[16:3],,,{8}3,
{8}2V41[4:2]/7V58[4:2],,,,,,,,
2^5[8:1]/6,,,6,6^1[8:1],,,2,
{4}2^5[8:1],{8},6,{4}6^1[8:1],5,
{8}4-1[8:1],,8-5[8:1],,4-1[8:1],,8-5[8:1],,
{8}3h[4:1],,7,8,{2}1<6[8:1]/5v4[8:1],
{8}2^5[8:1]/6,,2,6,6^1[8:1],,6,2,
{4}2^5[8:1],{8}2,6,{4}6^1[8:1],56,
{8}4-8[8:1],,1-5[8:1],,4-8[8:1],,1-5[8:1],,
{8}2b-4[8:1],2b-8[8:1],2bz6[8:2],2b,{2}2b,
{8}7h[8:2]/5h[8:2],,,7h[8:2]/3h[8:2],,,7h[8:2]/1h[8:2],,
{16},,7h[8:2]/3h[8:2],,,,,,7/5-1[16:1],,,5,,,7,,
{8}2h[8:2]/6h[8:2],,,2h[8:2]/4h[8:2],,,2h[8:2]/6h[8:2],,
{16},,2h[8:2]/8h[8:2],,,,,,2-5[8:1]/6-1[8:1],,,,26,,,,
{16}8/4h[4:1],,,,6,,3,4,,4,5,,5,6,,6,
4h[4:1],,,,8,,6,5,,5,4,,4,3,,3,
{8}5<1[4:1],,1>5[4:1],,5,,1,,
{12}3b/7b,3b/7b,3b/7b,2b/6b,2b/6b,2b/6b,{4}1q5[8:1]/5q1[8:1],,
{4}4^1[8:1]/8^5[8:1],4b/8b,{16}2-5[8:1],1,2,1,{8}2,7,
4^1[8:1]/8^5[8:1],,4b/8b,,{16}2-5[8:1],1,3,1,{8}2,7,
4^1[8:1]/8,4,8^5[8:1],8,2v5[8:1]*-6[8:1],3,2,,
{32}4b,3,2,1,{8}8bw4[8:1],,,,26,3,5,
4-8[8:1],6,{4}8-4[8:1],6,{8}1-5[8:1],3,
5-1[8:1],,4>5[4:1],,,,{8}8,8h[16:4],
,2,4^1[8:1],3,8^5[8:1],7,4^1[8:1],3,
4b/8b^5[8:1],7,8b/4b^1[8:1],3,4b/8bv3[8:1]*v5[8:1],7,8b,,
{4}2^5[8:1]/6^1[8:1],2b/6b,{8}48,{16}6,5,7,4h[16:3],,,
{32}6^1[8:1],,,,2^5[8:1],,,,6,,,,2,,,,{24}8h[12:1],,2,,1,1,1,,,,,,
{4}2^5[8:1]/6^1[8:1],2b/6b,{8}48,{16}3,4,2,5h[16:3],,,
{8}2^5[16:2],6^1[8:1],2,6,,37,45,26,
{16}3,4,3,4,2,5,2,5,4,6,3,5,8,7,1,6,
{16}2,5,3,4,2,1,3^8[8:1],8,4^7[8:1],7,3b,,4b,,,,
{8}26,4,37,5,2z6[8:1]/6z2[8:1],48,,,
{8}1^4[8:1],5^8[8:1],1,5,4-2[12:1],4-6[12:1],4pp8[4:4]*qq8[4:4],4,
{1}4b,
{8},,,,,,,,,,,,,,,,{4}1b-5[8:1],
2b-6[8:1],3b-7[8:1],{8}4w8[8:1],4,
{4},2h[8:1]/6h[8:1],{8}8^5[8:1],4^1[8:1],8,4,
7-2[8:1],3-6[8:1],7,3,8^5[8:1],4^1[8:1],8,4,
{16}7h[16:1],,,,{48}5b/2b,3/6,47,58,,,,,,,,,
{8}4^1[8:1],8^5[8:1],4,8,
1-3[8:1],1,1-7[8:1],5,1,5,3V15[2:1]/7V15[2:1],46,
E
