&title=CELERITAS
&artist=山本真央樹
&first=0.02
&des=Angolos
&lv_5=14
&inote_5=(190){4},{8},,,,,,,,,,,,,,5,
2,6,3,6h[8:1],4h[8:3],{4}7h[4:1],
{8},7,4h[1:1],E6,E5,E4,E3,E2,
E1,E8,{4}6xh[4:3],{8},,,,4,
7,3,6,3h[8:1],5h[8:3],{4}2h[4:1],
{8},2,5h[1:1],E4,E5,E6,E7,E8,
E1,E2,{4}3xh[4:3],{8},,,,5h[8:1],
2h[8:1],6h[8:1],3h[8:1],6h[8:1],4h[4:1],{4}7h[4:1],
{8},4,4h[1:1],6,5,3,2,1,
8,7,{4}6h[4:3],{8},,,,4h[8:1],
7h[8:1],3h[8:1],6h[8:1],3h[8:1],5h[4:1],{4}2h[4:1],
{8},5,5h[1:1],3,4,6,7,8,
1,2,{4}3h[2:1],{16}E6,E5,E4,E3,E2,E1,E8,E7,
{8}2/E6/A6/D6/A5,2,2,2/5,,6,6,6/3,
,4,4,4/7,{16}5,6,5,6,{8}5h[8:1],7,
7,7/4,,2,2,2/5,,8,
8,8/3,{16}1,2,1,2,{8}1-5[8:1],,,4b,
,5/7,6/4,5/3,{16},,4,4,{8}4,3/5,
6/2,7/1,{4}8xv3[8:1],{8}2/8,2x-5[8:1],,4/2,
{4}4x-7[8:1],{8}4/2,2xh[4:1],,8x,{16}1,1,1,1,
{4}1xv6[8:1],{8}1/7,7x-4[8:1],,5/7,{4}5x>2pp6b[2:1],
{16},,,,,,,,A7,D8,{8}A8,4,3,
2,1-6[8:1],,1/7-3[8:1],,7/5>8[8:3],,E1,
E7,E5,,,5h[8:1],6h[8:1],7h[8:1],8>3[8:1],
,8-4[8:1],,8,,3/6,{4}6h[4:1]/3h[4:1],
{8},,5,6,7,8-3[8:1],,8/2-6[8:1],
,2/4<1[8:3],,E1,E3,E5,,,4h[8:1],
3h[8:1],2h[8:1],1V74[4:1],,3/1,3,3V51[4:1],
,6/3,6,6h[4:1],,,7/1,3,
2/8,6-1[8:1],,3-6[8:1],3,2<4b[8:3],,,{2}3xh[4:1],
{8}2/8,6,7/1,3-8[8:1],
,6-3[8:1],,7>5b[8:3],,7,{4}6xh[4:1],
{8},,7/1,4,2/8,5-1[8:1],,5/2-6[8:1],
,2/7s3-5b[8:3],,7,{2}4xh[4:1],
{8}2/8,5,7/1,{16}2,6,2,6,{8}2z6-3b[8:3],,,,,{4}8bxh[4:1],
4bxh[4:1],6bxh[4:1],
{8}2,4,3,8,1,7,{16}5-2[8:1],6,{8}6,
5,{16}7-4[8:1],8,{8}8,7,1-5[8:1],5-1b[8:1],{4}1,
{16}E8,E7,E6,E5,E4,E3,E2,E1,{4}E8,{8}6,4,
7,5,6,1,8,2,{16}4-7[8:1],3,{8}3,
4,{16}2-5[8:1],1,{8}1,2,8-4[8:1],4-8b[8:1],{4}8,
{16}E2,E3,E4,E5,E6,E7,E8,E1,{4}E2,{8}6/4,3,
5/2,7,8/4,3,2/5,6,{16}7-4[8:1],8,{8}8,
7,{16}2-5[8:1],1,{8}1,2,7<4[8:1],4<7b[8:1],{4}7,
{16}E2,E3,E4,E5,E6,E7,E8,E1,{4}E2/E3/B2/A2f,{8}3/5,6,
4/7,2,1/5,6,7/4,3,{16}2-5[8:1],1,{8}1,
2,{16}7-4[8:1],8,{8}8,7,2>5[8:1],5>2b[8:1],{4}2,
{16}E8,E7,E6,E5,E4,E3,E2,E1,{4}E8/E7/B7/A7f,{16}3,4,5,6,
3,4,5,6,3,4,5,6,3,4,5,6,2,3,4,5,
6,7,8,1,{4}2/6b>7p4[4:3],{16},,,,,,,,1h[2:1],
,,,,,,,,2,3,4,{4}6b/5>8pp4[4:3],
,,{2}5h[2:1],
{16},6,7,8,{4}3b/1p7[2:1],{16},,,,,,,,2,
3,4,5,8,7,6,5,4,3,2,1,{4}8/4bqq8[2:1],
{8},,,,,1h[8:1],5h[8:1],4h[8:1],
6h[8:1],2h[8:1],{4}7x-3-1-6[2:1],{8},,,,4h[8:1],
5h[8:1],2h[8:1],1h[8:1],3h[8:1],7h[8:1],{4}2x-6-8-3[2:1],
{8},,,,5h[8:3],,,3,
4/6,3/7,{4}8qq5[4:3]/4qq1[4:3],,,,,1-5[8:1],
8b/1b,
{8}6/4,3/7h[4:1],,4,4,6h[4:1],,4,
3/5,4,6/2,7/4,{16}6,5,{8}6,{4}7/3h[4:1],
{8}8bh[32:1],4,4,5,4/6,5,6/4,5/2,
{16}3,4,{8}3,{4}2b/5b,8/1,{8}8bh[32:1],6/3,
4/7,{16}6,5,{8}6,7/3,2,1/5,6,7/3,
{16}4,5,{8}4,3/6,2/1,8bh[32:1],3/5,4,6/2h[4:1],
,7,6/4,3/5h[4:1],{16},,3,4,{8}2b,7/1,
6,{16}4,4,{8}8bh[32:1],7/3,6/2,3/5,{16}4,6,3,5,
{8}2,3/4,{16}6,5,{8}7b,2/1,{16}3,3,{8}8bh[32:1],5/4,
6/2,{16}1,7,{8}1,1b,7/3,7/3,6/2,6/2,
2/6,3/5,{16}4,4,{8}4h[4:1],{16},,1,8,{4}7b,
{16}6/3,2,{8}1b,{16},,5/1,6,{8}7b,{16}4,5,4,5,{8}4,
B6f,3,3,E1f,5,5,E7f,3,
3,1,2/5,{16}3,4,{4}3h[4:1],{8}7,4,
7,7h[4:1],,8h[4:1],,6h[4:1],{16},,4,5,
4,5,{8}4,{16}6,5,{8}6,4b/6,6/4,6/4,6/4,
5/3,5/3,5/3,5/3>8[8:1],{24},,,7-2b[8:1],6,5,{8}4,A7,
,,E6,E4,{16}E7,B7,B8,E1,E3,B3,B4,E5,
A7,A6,A5,A4,A3,A2,A1,A8,{4}C/A7,2-5[8:1],
2/6-8[8:1],{8}6/4>1v6[8:3],4,7,7,,8,
5,7-5[8:1],,7/8,1,2,{4}6-1b[8:1],
6/3h[4:1],{8}8-4[8:1],8,3,3-8b[8:1],,3/6,
{4}6h[4:1],{8}1,1,5,5,{4}6b/4b-8[8:1],
{8}4,7-2b[8:1],,7/3-8-6[4:1],,3/6<2v5[8:3],,,,,,4/6,
4/6,3/7,{4}7/3-6[8:1],
{8}3,8-5b[8:1],,8/4-8-6[4:1],,4/6<2v5[8:3],{16},,,,,,,,7h[16:3],
,,5h[16:3],,,{8}6h[8:1],{4}3-7b[8:1],
3/5h[4:1],{8}8>3[8:1],8,6,6-2b[8:1],,6/4,
4h[4:1],1,{4}1<6[8:1],1/2,1-5[8:1],
{8}1/6,6-3[8:1],,6/7>5b[8:3],,E1f,,,7h[8:3],
,,3h[16:3],{16},5h[16:3],,,{4}4-1[8:1],
{8}4,,,5,6/4,7bh[4:1],,3,
2/4,1bh[4:1],,6h[8:1],5h[8:1],8bh[8:1],{4}2b-5[8:1],
{8}2/7,7b<3[4:1],,7/1-5-1b[4:1],,1,{16},,4,4,
{4}2,{12}3/5,,4/6,,5/7,,{4}6/8<5[4:1],
,4h[4:1],{8}7,7,7/4,7/4,
6/3,6/3,3/6,{16}4,5,{4}1b,{8}2b>4[8:1],1,
8,7b>1[8:1],6,5,4b<6[8:1],3,2,1b,
{16}7,6,5,4,E1,E2,E3,E4,E5,E6,E7,E8,{8}5,5,
5,5/3-8[8:1],,3/6-2[8:1],,6/7>5[8:3],,E5,
E7,E1,,,8h[8:1],7h[8:1],6h[8:1],5>2[8:1],
,5-1[8:1],,5,,2/8,{4}3h[4:1]/7h[4:1],
{8},,4,4,4,4/6-1[8:1],,6/3-7[8:1],
,3/2<4[8:3],,E5,E3,E1,,,1x-5[8:1],
5,5,7x-4[8:1],,3,3,2x>5[8:1],
,6,6,7x-1[8:1],,2,2,3/5,
,2/6,3/5,8b,,3/7,4/6,1b,
,2/6,3/5,8b,{16},,3/7,4/6,{8}5,1b,
{16},,6/2,3/5,{8}4,8b,{24},,,2/8,3/7,4/6,{8}5,1b,
{24},,,1/7,2/6,3/5,{8}4,8b,{32},,,,1,2/8,7/3,6/4,{4}5b,
{8}7,7-4[8:1],3,3-8[8:1],,3/6-3[8:1],,6/1b,
,4/2,3/5,4/6-1[8:1],,6/3-6[8:1],,3/8b,
,7/5,6/4,5/3q7[8:1],,3/6>3[8:1],,6/1,
,,7b,{16}2,2,5,5,4,4,7,7,3,6,
3,6,4,7,4,7,5-1b[8:1],8,5,8,{8}5b,,,3/7,
4,5/3,7,4/6,2h[8:1],5h[8:1],8h[4:1],
,6h[8:1],3h[8:1],1h[4:1],,5b-8b[8:1],3/7,{48}A1f,D2,A2,D3,A3,D4,
{1}A4,
E
