&title=lastendconductor 2
&artist=zts
&first=0.021
&des=tgc
&des_5=tgc
&lv_5=14
&inote_5=(139){4},,,2x<5p1[4:11]/7x>4q8[4:11],
{1}7b/2b,
{8},,,,,,,,,,,,,,,,2/7,
{16}3,6,4p2[4:1],6,{8}5,,,6x<4[4:1],5x,
1h[4:1],,,2,5,6,8/7>5[4:1],1,
2h[8:1],,,3,6,{24}7,5,7,{8}5-2[8:1],8,
5<3[4:1],7,{4}5,{8},6,5>7[4:1],4,
3h[4:1],,,2,6,{24}3,5,3,{8}5<3[4:1],2,
1h[4:1],{16},,,,4,2,{8}4,3,5-2[8:1],6,
{4}7-4[8:1],1-3[8:1],{8}1-5[8:1],4,1,7,
6/4>6[4:1],5,{4}2h[4:1],{16},,1,5,{8}1-5[8:1],7,
{4}1,{8}8,{16}7,5,{8}6,4,6/3>5[4:1],7,
8h[4:1],,,7,4,3,1/2<4[4:1],8,
7h[4:1],,,6,3,{24}2,4,2,{8}4-7[8:1],1,
4>6[4:1],2,{4}4,{8},3,4<2[4:1],5,
6h[4:1],,,7,3,{24}6,4,6,{8}4>6[4:1],7,
8h[4:1],{16},,,,5,7,{8}5,6,4-7[8:1],3,
{4}2-5[8:1],8-6[8:1],{8}8-4[8:1],5,8,2,
3/5<3[4:1],4,{4}7h[4:1],{16},,6,4,{8}6-1[8:1],3,
{4}6/2-5[8:1],{16}2/8,{32},,,,8,7,{4}4/6-3[8:1],6/2<4[4:1],
{8}8bh[4:1],,,7,6,5,4,3,
{4}2/1<6[4:1],{16}6>3[4:1],{32},,,,1x,2x,{4}3x>8[4:1],{16}8<5[4:1],{32},,,,4x,3x,
{8}2xh[4:1],{16},,,,4,1,{8}4,2,5,6,
{4}7/8>3[4:1],{16}3<6[4:1],,,7x,{4}6x<1[4:1],1>4[4:1],
{8}5h[4:1],,,6,7,8,1,2,
{4}3/4<7[4:1],{16}7>2[4:1],{32},,,,4x,3x,{4}2x>5[4:1],5<8[4:1],
{8}1h[4:1],,,2,5/3h[4:1],{16},,,,6,5,
{8}7-4[8:1],8,7/1-5[8:1],2,1/8-4[8:1],7,8/2<4[4:1],3,
2/7h[4:1],,,6,7,8,1,2,
{4}3/4<7[8:1],{16}2/4-8[8:1],,,1,{4}4>5[4:1],4/7,
8h[4:1],{8}4<2[4:1],7,4,,,5,
3,{24}6,4,6,{8}4-1[8:1],7,4,8,7/2,6/3,
4/5<3[4:1],6,{4}7h[4:1],{24},,,8,7,6,{8}5/4-8[8:1],3,
{4}2h[8:1],{8}1/7-4[8:1],6,7/1,2,3/5-1[8:1],{16}4,6,
{4}5qq7[2:1],2h[4:1],,1qq4[2:1],
{2}6h[4:1],{8}8,7,6,5,
4/3b,2h[8:11],,,,,,,,,{4}8,
{8}7,3,2,1,
8,7,{4}4x/6xh[8:5],{8},,,3,
5,4,3,2x/5xh[4:1],,3,6,7,
8x/1x,2h[8:7],,,,,,,,,{4}2/8,
{8}7,6,5,4,
{4}3/5,4/2,{8}1,8,7,6x/4xh[8:5],
,,,,6,5,4,3,
2x/6bx,5h[1:1],,E3,,E1,,E7,
,E5,{4}6h[8:1],{8}5/7,4,3,2,
8/1,7,6/2h[8:5],E6,,E4,,1,
8,7,6,4x/5xh[4:1],,3,2,1,
8x/7x,6h[1:1],,E7,,E5,,E3,
,E1,{4}5h[8:1],{8}6/4,3,2,1,
{4}8/7,6/5,{8}7/4,6/3,5/2,1h[8:7]/4>5b[8:5],
,,,,,,,,2,
2x-4[8:1],,6x-8[8:1],,2x>4[8:1],,6x<8[8:1],
,2x>5[8:1],,6x<1[8:1],,2x-5[8:1],,6x-1[8:1],
,2xq6[4:1],,6xq2[4:1],,2xV46[4:1],,6xV82[4:1],
,2x>6[4:1],,6x<2[4:1],,2xq4[8:3],,6x,
,7x-5[8:1],,3x-1[8:1],,7x<5[8:1],,3x>1[8:1],
,7x<4[8:1],,3x>8[8:1],,7x-4[8:1],,3x-8[8:1],
,7xp3[4:1],,3xp7[4:1],,7xV53[4:1],,3xV17[4:1],
,7x<3[4:1],,3x>7[4:1],,7xp5[8:3],,3x,
,1x>4[4:1],,4xq8[4:1],,8xq4[4:1],,4x<7[4:1],
,7x>2[4:1],,2xq6[4:1],,6xq2[4:1],,7x,
,8x<5[4:1],,5xp1[4:1],,1xp5[4:1],,5x>2[4:1],
,2x<7[4:1],,7xp3[4:1],,3xp7[4:1],,2x,
,1x<6[4:1],,6xp2[4:1],,2xp6[4:1],,6x>3[4:1],
,3x>8[4:1],,8x<5[4:1],,5x>2[4:1],,1x,
,8x>3[4:1],,3xq7[4:1],,7xq3[4:1],,3x<6[4:1],
,6x<1[4:1],,1x>4[4:1],,4xq8[4:1],,8xq4[4:1],
,4x<7[4:1],,7x>2[4:1],,2xqq6[8:5],,3x,
{2}4xh[4:1],{8}5,7,{4}4b/8b,
{16}3,4,2,5,4,6,1,5,3,4,2,5,4,6,1,7,
4,5,3,6,5,7,2,8,4,6,3,7,5,8,{8}1h[8:1],
{16}6,5,7,4,5,3,8,4,6,5,7,4,5,3,8,2,
5,4,6,3,4,2,7,1,5,3,6,2,4,1,{8}8h[8:1],
{16}5,7,1,6,3,5,2,6,5,8,1,7,3,6,2,5,
4,6,8,5,2,4,1,5,4,7,8,6,2,5,{8}1h[8:1],
{16}4,2,8,3,6,4,7,3,4,1,8,2,6,3,7,4,
5,3,1,4,7,5,8,4,5,2,1,3,7,4,{8}8h[8:1],
{4}5x-8[8:1],6x/5xV31[4:1],1V75[4:1],C,
4-1[8:1],3x/4xV68[4:1],8xV24[4:1],C,
7x-5[8:1],7xqq1[8:3]/2x-8[8:1],{2}2x-5[8:1],
{4}8x/2x-4[8:1],2xpp8[8:3]/7x-1[8:1],{2}7x-4[8:1],
{4}2x-6b[8:1]/5x<2[4:1],5x-3b[8:1]/2x<5[4:1],5x-1[8:1],2x,
7x-3b[8:1]/4x>7[4:1],4x-6b[8:1]/7x>4[4:1],4x-8[8:1],7x,
6x-8b[8:1]/1x>6[4:1],1x-5b[8:1]/6x>1[4:1],1x<6[8:1],6x,
3x-1b[8:1]/8x<3[4:1],8x-4b[8:1]/3x<8[4:1],8>5[4:1],3xh[8:1],
{16}2,6,1,7,4,6,3,5,2,6,1,7,4,6,3,5,
2,6,1,7,{8}8,6/2h[4:1],E3/B3,6h[4:1],E8/B7,4h[8:1],
{16}7,3,8,2,5,3,6,4,7,3,8,2,5,3,6,4,
7,3,8,2,1,3,6-8-5[4:1],4,{8}7,1,2,3h[8:1],
{16}4,2,8,1,5,2,7,3,4,2,8,1,5,2,7,3,
5,4,6,3,{8}7,2/8h[4:1],E6/B5,4h[4:1],E8/B7,6h[8:1],
{16}5,7,1,8,4,7,2,6,5,7,1,8,4,7,2,6,
4,5,3,6,2-5>1[8:3],7,1,8,{8}2,7,6,5,
{16}3,6,2,5,4,6,1,7,3,6,2,5,4,6,8,7,
1,4,2,5,{8}3,6/4h[4:1],B4/E5,8h[4:1],E1/B8,2h[8:1],
{16}6,3,7,4,5,3,8,2,6,3,7,4,5,3,1,2,
8,4,7,3,6qq1[8:3],2,5,1,{8}6,2,3,4,
{16}5,8,5,8,4,7,4,7,3,6,3,6,2,5,2,5,
{8}1-3[8:1],{16}4,4,{8}1-7[8:1],{16}5,5,{8}1-5[8:1],{16}6,6,{8}1,7V53-1-6b[8:15],
{1}8x/4xh[4:7],
,3b-5-8b[4:11],
E
