&title=バイロンの証明
&artist=とうかさ
&first=-0.18000002
&des=バイロン
&des_5=
&lv_5=13+
&inote_5=(148){4},1b-4[16:7],{8},,,,,8b-5[16:7],
{1},{4}2b-7[16:7]/6b-3[16:7],
{8},,,,,1b/8b,
,2/5,3/4,{16}6,5,,4,{8}5,
{16}3,4,{8}3,{4}2/5-7[8:1],{8}4,3-5[8:1],,7,
7,8-3[8:1],,4,5-1[8:1],5,{4},{16}8,
1,{8}8,7/2,4/5,2/6,3/7,1/8,2/7,
3/6,5bv6[8:5]/4bv3[8:5],{1},{4}3h[8:1],
{16}4h[8:1]/2h[8:1],{8},{16}5h[8:1]/3h[8:1],{8},{16}4,5,
4,5,4,5,4-6[8:1],{8},{16}4h[16:3],{4},{8}2-4[8:1],5-7[8:1],
2,5,{4}4h[8:1],{16}5h[8:1]/3h[8:1],{8},{16}6h[8:1]/4h[8:1],{8},{16}5,7,
5,7,5,7,5-7[8:1],{8},{16}5h[16:3],{4},{8}3-5[8:1],6-8[8:1],
3,6,{4}3h[8:1],{16}5h[8:1]/2h[8:1],{8},{16}6h[8:1]/3h[8:1],{8},{16}4,5,
4,5,4,5,4-7[8:1],{8},{16}4h[16:3],{4},{8}2-4[8:1],7-5[8:1],
2,7,{4}4h[8:1],{16}5h[8:1]/3h[8:1],{8},{16}6h[8:1]/2h[8:1],{8},{16}1,7,
1,7,1,7,1s5[4:1],{8},{16}1h[16:5],{8},,,2,
3,4,{4}5pp4[2:1],3,3,
{8}3,3>8[8:3],{4}4,4,4,
5,5pp3[2:1],1,1,
{8}1,1>4[8:3],{4}5,5,5,
4,4qq1[2:1],7,7,
{8}7,7<4[8:3],{4}1,1,1,
4,4qq5[2:1],5,6,
{8}7,7,5/6,2,3/4,{16}5,4,,6,{8}5,
{16}1,8,1,8,{4}1b-5[8:1],6,{16}7h[8:1]/4h[8:1],{8},{16}3h[8:1]/6h[8:1],
{8},2b/5bpp5[16:5],,1h[4:1],,,,3h[8:1]/4h[8:1],
,5b/2b>5[8:1],,7,{4}7,{16}8h[8:1]/5h[8:1],{8},{16}4h[8:1]/7h[8:1],
{8},3b/6bpp4[8:3],,2h[4:1],{4},3,
{8}3,{16}5,4,{4}7b-3[8:1],1,{16}2h[8:1]/4h[8:1],{8},{16}3h[8:1]/5h[8:1],
{8},6b/4bqq4[16:5],,8h[4:1],,,,7,
4,2/5h[4:1],,4,4,4,{16}4,5,4,5,
4,5,4,5,3,4,3,6,5,6,3,4,2,6,3,5,
{4}4-1[8:1],4b/7b-3[8:1]*-4[8:1],7,{8}1,{16}4-1[8:1],3,
{8},4/6-4[8:1],,2-5[8:1],3,8-5[8:1]*-3[8:1],,8,
,2/6,8-5[8:1],8,4,4,2-6[8:1],5-2[8:1],
2V84[4:1],5b,{4},{8}3,3,{16}5,4,{8}5,
3/6,3/6,8-6[8:1],1,2,3,4-2[8:1],5,
6,7V51[16:3],,1w5[8:1],,,,3/7,
{16}2,8,{8}2,1-6[8:1],1,4,4,5-8[8:1],5,
2,3-6[8:1]*-5[8:1],,3>6[4:1]*p6[4:1],{2},{16}5,
4,5,4,{4}5b-2[8:1]*-8[8:1],5,{8}1/8,{16}6<1[8:1],5,
{8},6/2-5[8:1],,8-5[8:1],7,1-4[8:1]*-6[8:1],,1,
,7/3,1-4[8:1],1,5,5,7-3[8:1],4-7[8:1],
7V15[4:1],4b,{4},{8}6,6,{16}7,5,6,5,
6,5,6,5,{4}8b<5[8:1],{8}3,3b>8[8:1],,4,
4,4bpp5[4:1],,1,2,3bq8[16:3]*<7[16:3],{2},{8}1/8,
4/7,2/5,4/1,3/6,5/7,
4/6,8bV25[2:1]/1bV74[2:1],{4},,,7-3[8:1],
7b/3b,{16}5h[8:1]/4h[8:1],{8},{16}6h[8:1]/3h[8:1],{8},{16}2,5,
2,5,2,5,2-7[8:1],{8},{16}2h[16:3],{4},{8}3-1[8:1],4-8[8:1],
3,4,{4}1h[8:1],{16}2h[8:1]/8h[8:1],{8},{16}1h[8:1]/7h[8:1],{8},{16}2,6,
2,6,2,6,2-5[8:1],{8},{16}2h[16:3],{4},{8}1-5[8:1],8-6[8:1],
1,8,{4}4h[8:1],{16}5h[8:1]/3h[8:1],{8},{16}4h[8:1]/2h[8:1],{8},{16}1,5,
1,5,1,5,1-5[8:1],{8},{16}1h[16:3],{4},{8}2-4[8:1],5-1[8:1],
2,5,{4}4h[8:1],{16}3h[8:1]/8h[8:1],{8},{16}2h[8:1]/7h[8:1],{8},{16}1,6,
1,6,1,6,1s5[4:1],{8},{16}1h[16:5],{8},,,2,
3/5,4/6,7h[8:1],5,4h[8:1],{16}5-8[8:1],4,{8},3,
3,2,2h[8:1],1,3h[8:1],{16}4-6[8:1],3,{8},1b,
{4}1b,{8}5/6h[8:1],3,3,5,5/4h[8:1],7,
7,5,5/6h[8:1],3,4/5h[8:1],2,{4}3/4q8[8:1],
{8}1,1,1h[8:1],8,3h[8:1],{16}4-7[8:1],3,{8},2,
2,8,8h[8:1],1,6h[8:1],{16}5-1[8:1],6,{8},8b,
{4}8b,{8}6/3h[8:1],6,5,4,3/5h[8:1],3,
4,5,3/6,{16}1,8,1,8,1,8,2,7,1,8,
3,6,2,7,{4}4b-8[8:1],7,{16}6h[8:1]/1h[8:1],{8},{16}3h[8:1]/8h[8:1],
{8},3b/8bqq8[16:5],,4h[4:1],,,,2h[8:1]/1h[8:1],
,8b/3b>8[8:1],,6,{4}6,{16}5h[8:1]/8h[8:1],{8},{16}3h[8:1]/6h[8:1],
{8},3b/6bpp4[8:3],,3h[4:1],{4},1,
{8}2,{16}8,1,{4}6b-2[8:1],4,{16}3h[8:1]/1h[8:1],{8},{16}6h[8:1]/8h[8:1],
{8},6b/8bpp8[16:5],,5h[4:1],,,,6,
1,3/8h[4:1],,4,4,4,{16}4,8,4,8,
4,8,4,8,3,5,4,7,5,6,2,4,{8}3,1/8,
{4}3-8[8:1]/6-1[8:1],3b>5[16:7]/6b<4[16:7],{8},,,,,4>5[8:5]/5b<4[8:5],
{1},{4}4bqq5[16:7]/5bpp4[16:7],
{8},,,,,4/5,
,2,4/3,{16}5,2,5,2,6,3,
6,3,7,4,{4}8-5[8:1],8/4,{8}1-4[8:1],5/3,
1,7<3[4:1],,3>5[8:3],,1h[8:3],{2},{8}6/5,
6/5,3/4,3/4,1/2,1/2,
8/7,2p6[2:1]/6p2[2:1],{1},{4}4b-7[8:1]*-1[8:1],
4,{8}6/1,{16}3>8[8:1],4,
{8},3/7<4[8:1],,1-5[8:1],2,8w4[8:1],,8,
,2/6,8qq8[4:1],8,4,4,2-5[8:1],8-2[8:1],
2V86[16:3]*V84[4:1],8b,{2},{16}2,5,3,4,
3,4,3,4,{4}1b>4[8:1],{8}6,6b<1[8:1],,5,
5,5bp3[4:1],,8,8,8bpp3[4:1]*qq5[4:1],{2},{8}6/2,
5/3,6/4,5/8,6/3,4/2,
5/3,1bs5[2:1]/8bz4[2:1],{4},,,7-3[8:1]/2-6[8:1],
2b/7b,1/8,{8}2-4[8:1],5,
{4}5,{8}1-3[8:1],4,{4}4,{8}8-3[8:1],5,
{4}5,{8}7-5[8:1],4,{4}4,{8}8-6[8:1],5,
{4}5,{8}1-6[8:1],4,{4}4,{8}3,{16}3,4,
{8}2,6<1[8:1],{4},3>8[8:1],7qq4[4:1],
{8}1,1,,3,4,5-2[8:1],,7,
6,5,{4}4-8[8:1],2V46[4:1],{8}6V82[4:1],6,
,4-6[8:1],,2-4[8:1],2,7s3[4:1],7,4,
{4}4,{8}2h[4:1],3,{4}3q5[4:1],3/5,
{8}7,7h[8:3],,6,{4}6p4[4:1],6/4,
{8}2,2>5[8:1],,1-5[8:1],,4>6[4:1]*p6[4:1],,,,,,3/4,
2/5,{16}1,6,2,7,1,8,
3,6,4,5,{8}3/6,2/5,4/7,1/8,3/6,4/8,
1/5,7b/3b-7[2:1],{4},,,6-2[8:1],
2b/6b,
E
