&title=夏宵スターマイン
&artist= 曲:本多友紀(Arte Refact)/歌:オンゲキシューターズ
&first=-0.25
&des=奏坂学園 譜面部 1年生 布衣
&lv_5=13
&des_5=奏坂学園 譜面部 1年生 布衣
&inote_5=
(136){4},{24},,,,,,,,,,,,,,,7,6,5h[24:31],
{4},,{16},3,{4},,{16},,{12}1>4[16:7],
,B5,,B6,,B7,,B8,
{48},,,,,,,,,,,,{16}8h[16:3],,,7h[16:3],,,{8}6<1[4:1],,,,3,
{16},4-8[8:1],{48},,,,,,{12}7,4x,{48},,,,,,,{16}6,,,{1}5h[8:13]/2pp6[2:1],
{8}7,8,1,2,3,4,{16}6,5,6,4,
{8}6,{16}2-5[8:1],1,,,{8}2/8,{16},,3,4,3,5,{8}3,
6/2,{16}7-4[8:1],8,,,{8}7/1,{16},,2,4,3,5,4,6,
{8}5/7x,{16}5,4,,4,{8}3x/5xpp8[8:3],,B1,B2,B3,
{16}4h[16:3],,,6h[16:3],,,{8}3h[4:1],,5,{16}2,4,3,5,
{8}3,{16}7-4[8:1],8,,,{8}7/1,{16},,7,5,6,4,{8}6,
3/7,{16}2-5[8:1],1,,1,{8}2,{16},,7,5,6,4,5,3,
{8}2x/4xpp8[8:3],,,1,,2,3,4,
{4}4/8,B7/B3,6/2,B5/B1,
{16}6h[16:3],,,5h[16:3],,,{8}4<7[8:1],,3/4,{4}3,
{16}3h[16:3],,,4h[16:3],,,{8}5>2[8:1],,6/5,{4}6,
{16}7h[16:3],,,6h[16:3],,,{8}4<7[8:1],,3/A4,{4}3,
{16}2h[16:3],,,3h[16:3],,,{8}5>2[8:1],,6/A5,{4}6,
{8}6h[8:1],{16}4,7h[16:3],,,{8}5,,B8/B4/A4/A8,{4}B6/B2/A6/A2,
{8}3h[8:1],{16}5,2h[16:3],,,{8}4,,B8/B4/A4/A8,{4}B6/B2/A6/A2,
{8}6h[8:1],{16}4,7,,,{8}3/5h[4:1],,2,1/6,7,
{4}8<5[8:1],8/3>8[8:1],3/6>3[8:1],6/1>8[2:1],
{8}1,,,B3,B2,,,2,
{4}3-8[8:1],4-7[8:1],5-1[8:1],8<1[2:1],
{8}8,,,B6,B7,,,7,
{4}6-1[8:1],5-2[8:1],4-8[8:1],3,
{16}B8/B7/B2/B3,,,B6/B5/B4,,,{8}5-1[8:1],,5,4,3,
{16}B1/B2/B7/B6,,,B3/B4/B5,,,{8}4-8[8:1],,4,5,6,
6h[8:1],{16}1,7h[8:1],,2,{8}8,2h[8:1],{16}5,3h[8:1],,6,{8}4h[8:1],
{1}5<4[2:1],
{16}5b/4b,,,6b/3b,,,{8}7b/2b,,1v6[8:1],2,3,
4>8[16:3],{16}5pp4[4:1],4x,,,{8}5x,{32}B8,B7,B6,B5,{8}E5,2x/4x,5/3,
5<1[16:3],{16}4qq5[4:1],5x,,,{8}4x,{32}B1,B2,B3,B4,{8}E5,5x,6/4,
{4}3/7-4[8:1],{8}2/7,1,8,{16}7/3,3/7,,,{8}2-4[8:1],
8-4[8:1],2-6[8:1],8p3[8:1],2,{4}8,{8}7,6,
5<1[16:3],{16}4qq3[16:3],5x,,,{8}4x,{32}B1,B2,B3,B4,{8}E5,7x/5x,4/6,
4>8[16:3],{16}5pp6[16:3],4x,,,{8}5x,{32}B8,B7,B6,B5,{8}E5,4x,3/5,
{4}6/2-5[8:1],{8}7/2,8,1,{16}2/6,6/2,,,{8}2h[8:1],
7,3h[8:1],{16}6,4,,4,5,3,6,B2,B7,B1,{8}B8,
{4}3-8[8:1],3/6-1[8:1],6/2-5[8:1],2/7-4[8:1],
{16}7b/2h[16:3],,,3xh[16:3],,,{8}5>1[4:1],,6,7,8,
2,{16}3/7,3/7,,2h[8:1],,6,{8}1-4[8:1]/5-8[8:1],8/4,{4}1/5,
{16}5h[8:1]/7h[8:1],,,4h[8:1]/6h[8:1],,,{8}3h[8:1]/5h[8:1],{16},2h[8:1]/6h[8:1],,,{8}7/1,2,
3,{16}3,5,,5,{8}7-4[8:1],{16},,1,1,{4}1bx-5[8:1],
{16}6h[16:3],,,4xh[16:3],,,{8}2b<7[8:1],,3,{12}4,4,4-8[8:1],
{4}7,{8}6,7,8-5[8:1]*-3[8:1],1,{4}8,
{16}4h[8:1],,,3h[8:1]/5h[8:1],,,2,4,3,4,2,5,4,5,3,6,
{8}5,4h[8:1]/6h[8:1],{16},3h[8:1]/5h[8:1],,,4w8[8:1],5,{8}3,{4}4b,
{8}2h[8:3]/6h[8:3],,,,,B8/B1,{4}B5/B4,
{8}3h[8:3]/7h[8:3],,,,,B5/B4,{4}B8/B1,
{8}6,{16}6,5,,5,{8}4pp7[8:3],,3,2,1,
{16}8h[16:3],,,6h[16:3],,,{8}4,B3/A3/B7/A7,B2/A2/B6/A6,{4}B8/C/B4,
3x/6x<2[4:1],2<6[4:1],3,4,
6/3V17[4:1],7V13[4:1],6,5,
{8}4,{16}4,3,,3,{8}2>5[16:3],,1,8,7,
{16}4,5,4,5,3,6,3,6,2,7,2,7,1,8,{8}1,
{16}8bx/1bx,,,8b/1b,,,{8}7b/2b,{16},,6,{32}B3,B4,{8}B5,7,
{2}8p4[8:3],B2/B3,
1q5[8:3],{4}B7/B6,{8}4x,3/5,
{4}6/2-5[8:1],{8}2b/7b,8,1,{16}2/6,6/2,,,{8}7-5[8:1],
1-5[8:1],7-3[8:1],1q6[8:1],7,{4}1,{8}2,3,
4>7[16:5],{16}5pp7[16:3],4x,,,{8}5x,{32}B8,B7,B6,B5,{8}E5,2x/4x,5/3,
5<2[4:1],{16}4qq2[32:5],5x,,,{8}4x,{32}B1,B2,B3,B4,{8}E5,5x,6/4,
{4}3/7-4[8:1],{8}2/7,1,8,{16}7/3,3/7,,,{8}6,
{4}2-6[8:1],2/1,7-3[8:1],{8}7/8,1,
{2}2q5[8:3],{4}8,{8}6,7,
{2}8qq6[8:1]*pp2[8:1],4x>5[16:11],
{32},,,,,,,,,,,,,,B5,C,{4}B1f/B8/B2,{8}1/B6/B5,1,
2/B7/B8,{16}3,3,{8}B6/B5,3,{4}2/B7/B8,{8}8/B3/B4,8,
7/B2/B1,{16}6,6,{8}B3/B4,7,{4}7/B2/B1,{8}4/6,1>4[8:1]*<6[8:1],
8/2,1,,5,5-8[8:1]/4-1[8:1],6/3,{4}5b/4b,
B2f/B7/B6/B3/Ch[2:1],{16},,,,,,,,3,4,3,5,
{8}3,{16}7-4[8:1],8,,,{8}7/1,{16},,6,5,6,4,{8}6,
3/7,{16}2-5[8:1],1,,,{8}2/8,{16},,7,5,6,4,5,3,
{8}4/2x,{16}4,5,,5,{8}6x/4xqq1[8:3],,B8,B7,B6,
{16}5h[16:3],,,3h[16:3],,,{8}6h[4:1],,4,{16}7,5,6,4,
{8}6,{16}2-5[8:1],1,,,{8}2/8,{16},,2,4,3,5,{8}3,
6/2,{16}7-4[8:1],8,,8,{8}7,{16},,2,4,3,5,4,6,
{8}7x/5qq1[8:3],,,8,,7,6,5,
{4}5/1,B2/B6,3/7,B4/B8,
{8}3>5[4:3],{16},,,,,,,,,,,,4,3,
{1}2,
E
