&title=Utopiosphere
&artist=Mili
&first=0
&des=KuSA
&lv_5=13+
&inote_5=(176)
{1},,
{8}
3h[4:1],,,,,,,,4h[4:1],,,,E1,,,,
5h[4:1],,,,,,,,6h[4:1],,,,,,,,
3h[4:1],,,,,,,,4h[4:1],,,,C,,,,
5h[4:1],,,,,,,,6h[4:1],,,,36,,
{16}
4,5,4,5,
(88)
{16}
3>8[8:1],,7,7,6>3[8:1],,5,,1<6[8:1],,2,2,4>1[8:1],,5,,
7qq5[8:1],,6,6,2pp4[8:1],,3,3,6>3[8:1],,7,7,2,,,,
5-8[8:1],,3,3,2-5[8:1],,1,,8-3[8:1],,7,7,5-8[8:1],,6,,
3<5[10:1],,2,2,7>1[10:1],,6,6,2,,3,3,1-5[8:5],,37,,B8,,B7,,B3,,B4,,B6,,D6,,34,25,,,
6-4[12:1],5,7,,,,,,3-5[12:1],4,2,,,,,,
6,5,7h[8:1],,8h[8:1],,1h[8:1],,2h[8:1],,4,3,5h[8:1],,4,,3-5[12:1],4,2,,,,,,
6-4[12:1],5-3[12:1],7,,,,,,3,4,2,2,1,,7,7,5,,4>2[12:1],4,5,6,,,
7<4[6:1],,1/6h[8:3],,,,,,2>5[8:1],,3h[8:3]/8,,,,,,6>3[6:1],,5h[8:3]/7,,,,,,2h[8:1],,
3h[8:1],,4h[8:1],,5h[8:1],,6V42[6:1],,7/4h[8:3],,,,,,3V57[6:1],,5h[8:3]/2,,,,,,
7<2[6:1],,4h[8:3]/8,,,,,,E1,,E5,,,,,,
4>6[4:1],,,,6<3[4:1],5,4,,4,,4,,6<3[16:4],,,,3p6[16:4],4,5,,5b,,5b,,
3p6[4:1],,,,6>3[5:1],7,8,,8,,8,,6>3[5:1],,,,3v6[5:1],2,1,,1x,,1x,,
2v5[10:1],,1/4,,2,,7v4[10:1],,5/8,,7,,1-5[10:1],,2/4,,1,6,7h[4:1],,
E5/B5,,{128}E1,B1,,,,,,,{64},,,,
{8}
6h[8:1],4h[8:1],2,1/2h[8:1],4h[8:1],6,7h[8:1]/8qq8[4:1],1pp1b[4:1],2,,,,
{16}1/6-4[10:1],,78,,6,3,1>6[8:1],,78,,15,,7-3[10:1],,4/8,,7,2,1h[4:1],,
E3/B3/E4,,{128}E7,B6,E6,,,,,,{64},,,,
{16}
3h[4:1]/4,,4,4,6,,7h[4:1]/5,,6,6,1,,2/1-5[10:1],,7/8-4b[10:1],,1,,8b,,
{32}E3,E2,E1,E8,E7,E6,E5,E4,{8}7>3[2:1],,,,3<7[2:1],,,,7q5[2:1]*>4[2:1],,,,,,,,
3V17[2:1],,,,7V53[2:1],,,,8-5[4:1],,8q4[4:1],,,,
{32}E7,E8,E1,E2,E3,E4,E5,E6,{8}1/7x-3[8:1],,1,,2/3-6[8:1],,2,,3/4pp8[2:1],,3,,
4,,4,,5>1[6:1]/6,,7,,4<8[6:1]/2,,1,,
8/5>1[8:1]*p1[8:1],,5<1[8:1]*q1[8:1],,5p4[6:1],,8b,,
{16}6q2[8:1],,2,2,3<6[8:1],,4,4,2<7[8:1],,8,8,5p1[8:1],,4,4,
7-4[8:1],,6,6,2-5[8:1],,3,3,6-2[6:1]*V42[6:1],6,7,8,,,,,
1>4[8:1],,2,2,5-1[8:1],,6,6,8<5[8:1],,7,7,4-8[8:1],,3,3,
2<7[8:1],,3,3,6q2[8:1],,5,5,4pp3[5:1],,3,3,C,,,,
6<1[8:1],,2,2,3<6[8:1],,4,4,8>3[8:1],,7,7,5<8[8:1],,6,6,
2>5[8:1],,1,1,6,,8,8,{32}6x,5,4,3,1x/2x,8,7,6,4x/5x,3,2,1,8x/7x,6,5,4,
{16}2bh[8:1]/3b,,5,5,2-4[16:1],4-1[16:1],1-5[16:1],5,,,6,6,
4V63[8:1],6,3-8[16:1],7,,,7,7,1-6[16:1],6-2[16:1],2-4[16:1],5,,,
8,8,3pp6[8:7],7pp2[16:13],1,5,,,,,,,,,,,,,,,,,1qq2[8:5]/5qq6[8:5],,,,,,,,,,,,,,,,
E8,,E3,B3,B5,,B1,,B7,B4,E6,,E3,C,E4,,E1,,E7,B6,B4,,B8,,B2,B5,E4,,
6,5,4,3,
