&title=AFTER PANDORA
&artist=削除
&first=0
&wholebpm=85
&lv_6=13+
&des=K4G4KU F0R 2025
&inote_6=(85)
{1},
{8}7V53[8:1]*V13[8:1]/2,3>3[8:3],{4},{2},
{8}3V17[8:1]*V57[8:1]/6,7<7[8:3]*>7[8:3],{4},{2},
{16}1-3[32:1],1-4[32:1],1-5[32:1],1-6[32:1],,,,,
{16}8-3[32:1],8-4[32:1],8-5[32:1],8-6[32:1],,,,,
{16}2-7[32:1],2-6[32:1],2-5[32:1],2-4[32:1],,,,,
{16}7-2[32:1],7-3[32:1],7-4[32:1],7-5[32:1],,,,,
(56.666)
{12}1b>5[12:2],,6,5-1[12:2],7,8,
{12}1>5[12:2],,6,7,7,8,
{12}8-4[12:2],,3,4<8[12:2],2,1,
{12}8-4[12:2],,3,2,1,1,
{12}1s5[12:2],,6,5>1[12:2],7,8,
{12}1z5[12:2],,6,7,8,8,
{12}8<4[12:2],,3,4z8[12:2],,1,
{12}8V64[12:2],,3,2,1,8,
{2}7b-3[2:1]*-3[2:1]/3b,
{24},,,,,,,,,4,5,3,
{24}4,2,6,5,7,3,4,1,6,5,8,3,7h[24:3],,,4,8,4,3,2,1,8,7/2,6/3,
{6}4/5h[6:1],{36}3,4,3,{6}5h[6:1],{36}2,3,2,
{24}4h[24:3],,,3,4,2,5,3,6,4,7,5,
{12}6h[6:1],,5,3/4,1/2,7/8,
{24}6/1,2,3,4/8,7,6,5/1,4/2,3,4/8,5/7,6,
{12}8q5[12:1]/5p8[12:1],5<8[12:1]/8<5[12:1],,,,,
{12}1p4[12:1]/4q1[12:1],4>1[12:1]/1>4[12:1],,,,,
{12}8z4[24:1]*s4[24:1],3h[12:1]/7h[12:1],,,{48}1,8,2,7,1,8,2,7,
{48}1,5,1,5,2,6,2,6,3,7,3,7,4,8,4,8,3,7,3,7,
{96}2,1,8,7,6,5,4,3,
{12}6b/2bq5[12:2],4,5V31[12:1],2/6,7,8,
{12}7p4[12:2],5,4V68[12:1],7/3,2,1,
{12}3p8[12:2],1,8z4[12:1],3/7,6,5,
{12}6q1[12:2],8,1s5[12:1],6/2,3,4,
{4}2h[4:1],{128},1/3,4/8,5/7,{32}6h[32:7],{16},,,
{12}2b-6[24:1],7b-3[24:1],1b-5[24:1]/8b-4[24:1],2b,7b,8b/1b,
{4}7h[4:1],{128},8/6,5/1,4/2,{32}3h[32:7],{16},,,
{12}7b-3[24:1],2b-6[24:1],8bz4[24:1]/1bs5[24:1],7b,2b,1b/8b,
{36}3h[36:1],4h[36:1],2h[36:1],6h[36:1],5h[36:1],7h[36:1],
{36}3h[36:1],4h[36:1],2h[36:1],6h[36:1],5h[36:1],8h[36:1],
{36}3h[36:1],5h[36:1],1h[36:1],6h[36:1],4h[36:1],8h[36:1],
{48}1b-5[5.666#384:1],8,1,8,1,8,1,8,1,8,1,8,
{40}1,8,1,8,1,8,1,8,1,8,
{36}1,8,1,8,1,8,1,8,1,
{28}8,1,8,1,8,1,8,
{24}1,8,1,8,
{20}1,8,{40}1,,,8,,,
{12}1,8,,1,,,8,,,,1,,,
{24}1b,,,,,4h[24:1],
{24}5b,4b/5b,6b/7b,8/1,2b/3b,4b/5b,
(170){4}7bV51[4:1]/3b,1V37[4:1],4,
2V48[4:1],8V62[4:1],5,
7q5[4:1],5q3[4:1],3q1[4:1],
1q7[4:1],7V51[4:1],3,
2V48[4:1],8V62[4:1],5,
7V51[4:1],1V37[4:1],4,
2p4[4:1],4p6[4:1],6p8[4:1],
8p2[4:1],2V48[4:1],6,
7V53[4:1],3V17[4:1],7,
2V46[4:1],6V82[4:1],2,
7V53[4:1],3V17[4:1],7<3[4:1],3>7[4:1],7s3[4:1],3,
1V35[4:1],5V71[4:1],1,
6V42[4:1],2V86[4:1],6,
1V35[4:1],5V71[4:1],1>1[2:1],5<1[4:1],1s5[8:1]*z5[8:1],,
{8}7b-4[8:1]/3bv8[8:1],,,,1/5,2/6,
2/6-3[8:1],,6/1-6[8:1],,1/5-1[8:1],,
5/2-5[8:1],,2/6-2[8:1],,6/1>7[4:1],,
1/7<1[4:1],,8,8,7,6,
2bv5[8:1]/6b-1[8:1],,,,8/4,7/3,
7/3-6[8:1],,3/8-3[8:1],,8/4-8[8:1],,
4/7-4[8:1],,7/3-7[8:1],,3/8<2[4:1],,
8/2>8[4:1],,1,1,2,3,
7-5[12:1]/3,,7-1[12:1]/3,,2/7,2,
3-1[12:1]/5,,3-5[12:1]/7,,3/6,,
6-8[12:1]/2,,6-4[12:1]/2,,3/6,3,
2-4[12:1]/8,,2-8[12:1]/6,,2/7,,
7-5[12:1]/1,,7-1[12:1]/2,2,7/3,,
2-8[12:1]/7,,2-4[12:1]/6,6,2/5,,
6-8[12:1]/4,4,6-4[12:1]/3,3,6/2,,
2-8[12:1]/7,7,2-4[12:1]/6,6,2/5,5,
(56.666)
{1}4bw8[4:1]/5bw1[4:1],
{4}5-3[12:1],7-5[12:1],1-7[12:1],3-1[12:1],
{4}6-8[12:1],4-6[12:1],2-8[12:1],4-2[12:1],
{4}5-8[12:1],4-1[12:1],1-5[12:1],1>5[12:7]*<5[12:7],
{1},,
E
