&title=勇者
&artist=YOASOBI
&first=0
&des=BluesDawn
&clock_count=4
&lv_5=13
&inote_5=(104)
{1},
{16}5,5h[8:3],,3,,4,,6xv4^3[16:3],,,,5h[8:1],,,,,
{16}4,4h[8:3],,6,,5,,3xv5^6[16:3],,,,4h[8:1],,,,,
{16}6,6h[8:3],,4,,5,,7xv5^4[16:3],,,,2h[8:1],,,,,
{16}3,3h[4:1],,5,,4-8[16:1],,2,,,,,7b/1b,,,,
{16},3,5,4,,7,1,8,,2h[8:3]/7,,B1,,B5,,B7/E8/A7,
{16},6,4,5,,2,8,1,,7h[16:5]/2,,B8,,B4,B2,,
{16},3,5,4,6,5,,7-3[8:1],,3-7[8:1],,4,,2,,,
{16}68,,,6,5,4,3,2,1,8,,75,,6,4h[8:1],,
{32}E5,E6,E7,E8,E1,E2,E3,E4,
{4}E5,2<6[4:1]/6,6p2b[4:1]*>6[2:1],,,
{16}2<6[4:1],,4x,5x,6xp2b[4:1]*>2[4:1],,,,,,,,,,1,,
{4}7>3[4:1]/3,3q7b[4:1]*<3[2:1],,,
{16}7>3[4:1],,5x,4x,3xq7b[4:1]*<7[4:1],,,,,,,,,,8,,
{16}1h[16:14]/6p4^3[4:2],,,,,,,,,,,,,,B2/A2/E3,,B4/E4/B3/8p6[16:6],,
{16}2h[16:12],,,,,,,,,,B5/A5/E5,,B6/E7/B7,,A8/B8/E1/3p1^8[16:8],,
{16}6h[16:14],,,,,,,,,,,,B7/A7/E8,,B3/E4/B4,,5,,,2,4,3,5,64,,75,,1,28,,,
{16}3,4,5,4,2,,75,,6-1[8:1],,1-5[8:1],,,,,,
{16}4,3,2,,35,,6,,8-4-7[8:1],,2h[8:1],,,,,
{16}1,6,2,7,3,8,,5,,46,,3,,4h[8:1]/2h[8:1],,,1-5[8:1],,,,,,
{16}7,,5,6,,71,,8,2,,
{16}Ch[8:1],,,,B3,,B2,,B1,,8h[4:1],,,,Ch[8:1],,,,B6,,B7,,B8,,1h[4:1],,,,
{32}B1,B2,B3,B4,{16}B5,,78,16,,5,5,5,64,,21,83,,4,4,4,35,,
{24}6x,7x,8x,2x,3x,4x,6x,7x,8x,2x,3x,4x,6x,7x,8x,1x,2x,3x,
{4}4x-8[8:1],4b,,
(208)
{8}1h[2:1]/5h[2:1],,,,,,,2-5[8:1]/6-1[8:1],,Cf,,4,8,
{8}2,6,3-8[8:1]/7-4[8:1],,37,,1,26,7,48,5-1[8:1],,8,7,62,3,48,7,2-5-1[4:1]/6,,
{8}6h[8:1],,,2/8q4[8:1],,7b/8b,,7/1p5[8:1],,2b/1b,,
{8}2/8-4[8:1],,7bx/8b`E7`B6`B5`E5,,7/1-5[8:1],,2bx/1b`E3`B3`B4`E5,,
{4}2/8-3[8:1],7bx/8b`E7`B6`B5`E5,2^5[4:1],5^8[4:1],8^3[4:1],3q5[8:3],,
{8}Cf,,6,2,6,7-4[8:1]/3-8[8:1],,37,,5,1,
{8}7,3,6-1[8:1]/2-5[8:1],,62,,8,73,2,51,4-8[8:1],,1,2,37,6,51,2,7-4-8[4:1]/3,,
{8}3h[8:1],,,7/1^6[8:1],,2b/1b,,2/8^3[8:1],,7b/8b,,
{24}7/1p5[8:1],,,,,,2bx/1b,3,4,,,,2/8q4[8:1],,,,,,7bx/8b,6,5,,,,
{24}7/1^6[8:1],,,,,,2bx/1b,3,4,,,,
{8}5-1[8:1],,2,,3,4,5h[4:1]/8-4[8:1]*-4[8:1],,Cf,,,,,,,,
{12}3h,5h,4h,6h,,,6h,4h,5h,3h,,,3h/7h,4h,5h,6h,7h,8h,1h/5h,2h/6h,3h/7h,4h/8h,,,
{12}7h,5h,6h,4h,,,2h,4h,3h,5h,,,6h/2h,5h,4h,3h,2h,1h,8h/4h,7h/3h,6h/2h,5h/1h,,,
{12}1h,4h,2h,5h,,,7h,4h,6h,3h,,,3h/7h,8h,1h,2h,3h,4h,1h/5h,2h/6h,3h/7h,4h/8h,,,
{12}8h,5h,7h,4h,,,3h,6h,4h,7h,,,6h/2h,1h,8h,7h,6h,5h,8h/4h,7h/3h,6h/2h,5h[4:1]/1h[8:3],,,
{8},,,6,5,4,,2/7-3b[8:1],,7,1b,,,,,,
{1},E
