&title=Holiday∞Holiday
&artist=Cerise Bouquet
&first=0
&des=absqrt. &clock_count = 4
&lv_5=11+
&inote_5=(135)
{1},,
{4}E5,B5,B4,{16}7/2-7[8:1],,2/7,,
{8},5,5,,6,,4h[4:1],,
{8}8-5[8:1],,3^1[8:1],,7^5[8:1],,2^4[8:1],2,
{8},8^6[8:1],8,,4^2[8:1],,5^7[8:1],,
{8}1-4[8:1],,8-5[8:1],,2^4[8:1],,7^5[8:1],7,
{8},1^3[8:1],1,5x-8[8:1],,4x-1[8:1],,,
{8}7h[4:7],,B3,,B5,,B3,,5,,3,,5,,3,,
{8}2h[1:1],,B4,,B6,,B4,,6,,5,,4,,3,,
{8}7p6[4:3],,5,,4,,3,,2q3[4:3],,5,,6,,7,,
{8}8^5[4:1],,5,,4,,3-8[8:1],3,
{8},,7h[4:1],,4h[4:1],,5,,
{8}3h[4:1]/4,,6,6h[4:1],,5,5,7^4[4:1],,4,,3,,2h[4:1],,4,
{8}4h[4:1],,3,3h[4:1],,6,6,4^1[4:1],,7,,6,,5h[4:1],,1,
{8}1h[4:1],,6,6h[4:1],,4,4,7^4[4:1],,3,,3,,5h[4:1],,2,
{8}2h[4:1],,7,7h[4:1],,5,4,3,
{8}3h[4:1],,6h[4:1],,5h[4:1],,4h[4:1],,
{8}3>6[4:3],,4,,5,,,,
{8}4>7[4:3],,5,,6,,,,
{8}5>8[4:3],,6,,7,,6,,
{8}5-1[8:1],,3,,4-8[8:1],,6,,
{8}5/3,,7/1,7/1,,6/2,6/2,6/2,
{8},7/3,7/3,4h[4:1]/6h[4:1],,,5^7[8:1]/3,,
{8}4^2[8:1],,6^8[8:1],,3^1[8:1],,8,8,
{8},8b/1b,8b/1b,,7/2^7[8:1],,,,
{4}3b/6b<3[4:1],3>6[4:1],6<3[4:1],3>6[4:1],6<3[4:1],3>6[4:1],6,3-8[8:1],
{8}4-7[8:1],,1^4[8:1],,8^5[8:1],,4-8[8:1],4,,5-1[8:1],,2^4[8:1],,,8x-4[8:1],,
{4}1-5[8:1],2-6[8:1],3-7[8:1],4-8[8:1],5-1[8:1],6-2[8:1],7,
{8}8^3[8:1],,4^7[8:1],,3qq3[2:1],3,,6,6,6,
{8},8b^5[8:1],,4,4,3,,5/3,
{16}2,4,3,4,2,,5,,6/2,,6/2,,7/1,,,,
{16}7,5,6,5,7,,8/4,,8/4,,B2/B3/E3,,B2/B3/E3,,6,,
{16}2,4,3,4,2,,5,,6/3,,7,,8,,1b^6[8:1],,
{8},5,4,1b^4[8:1],,4,5,,
{4}6/3>6[4:1],6<3[4:1],3>6[4:1],6<3[4:1],3>6[4:1],6<3[4:1],3,6-1[8:1],
{8}5-2[8:1],,8,8b-5[8:1],,1-4[8:1],1,1,
{8},,6,6^8[8:1],,3^1[8:1],,
{8}8<1[1:1],8h[8:15],,,,,,,,,,,
{8}6,,2,,
{8}4>5[1:1],4h[1:1],,,,,,,,
{8},,,8h[8:1]/4h[8:1],,1b/5b,6b/2b,7b/3b,,,,,,,,,E
