&title=Recollect
&artist=鈴木このみ/Ashnikko
&first=0.96
&lv_5=13+
&des_5=Sespori
&inote_5=(145){4}4h[4:7]/7<2[2:3],,,,,,,,4p6[8:3]/8p2[8:3],
,,1s5[2:1],
,,,2-6[8:1],
2b/4,7<5[8:1],{16}3,,,2,,,{8}1,
{4}1h[4:1],5<7[8:1],{16}2,,,3,,,{8}4,
{4}4>1[16:3],8,{16}8,,,7,,,{8}6,
{4}6<1[8:1],2,{16}2,,,3,,,{8}4,
{16}4-2[8:1],,,5,{8}4,6,{16}7-4[16:3],,,3,,,{8}2,
{16}1-3[8:1],,,8,{8}1,7,{16}6-1[16:3],,,1,,,{8}2,
{16}3h[16:3],,,8h[16:3],,,{8}5h[8:1],{2}4>5[2:1],
{8},3,2,1,8,5,6,2,
2b-5[8:1],,,8,7-4[8:1],,,8,
{4}1-5[8:1],{8}4,8,{4}8>3[8:1]*<5[8:1],8b,
{8}4-8[8:1],2>5[8:1],4,2,7<4[8:1],8,{4}7,
{8}3b,4,1-6[8:1],8,{2}1/8w4[8:1],
{8}7b-4[8:1],,,1,2-5[8:1],,,1,
{4}8-4[8:1],{8}5/8,1,{4}1-6[8:1]*-4[8:1],1b,
{8}5-1[8:1],7<4[8:1],5,7,2>5[8:1],1,{4}2-8[8:1],
{8}2b-4[8:1],5,2b-6[8:1],7,{2}2b/8w4[8:1],
{8}7-5[8:1],8h[24:1],,2-8[8:1],{4}4h[24:1],{8}5-1[8:1],1h[24:1],
,2-6[8:1],{4}6h[24:1],{8}8-4[8:1],3h[24:1],2,1,
8,{16}7-4[8:1],8,,8,{8}7,1w5[8:1],,{4}1,
{8}8,{16}2-5[8:1],1,,1,{8}2,{4}8-4[8:1],{8}8>3[8:1]*<5[8:1],2,
{4}8b,{8}2,{16}3,4,3,4,{8}3,6,5,
7/4,8,1,{16}7,1,7,1,{8}7,3,4,
2/5b,8,7b/5,3,1b/2,7b/8,5b/3,1b,
{12}2/8,2/8,2/8,3/7,3/7,3/7,{4}3-1[8:1]/7-5[8:1],3-6[8:1]/7-2[8:1],
7b/3b,{32}7/1b,2,3,4,{8}5,{16}6,4,,8,{8}1>4[8:1],7,
1,8,{32}2/8b,7,6,5,{8}4,{16}3,5,,1,{8}8-4[8:1],7,
8/2>5[8:1],1,2/7-4[8:1],8,7/1,2,3-7[8:1],7,
5b/3,8bw4[8:1],,,,1/2,4,5,
3-8[8:1],7,{4}3/4-7[8:1],4,{8}1-5[8:1],8,
1>4[8:1],{16}6,6,{8}1<6[8:1],{16}5,5,{8}1>4[8:1],{16}5,5,{8}1,8V62[16:3],
,4,1,3,1>4[8:1],8,1,8V62[16:3],
,4,1,3,{16}5/1b,8,7,6,5/1b,2,3/7,4,
{4}5>2[8:1]/1-5[8:1],5/1,{8}8/7,{16}6,4,5,3h[16:3],,,{8}8-5[8:1],
2<3[8:3],8,2,,,,6,
{4}4>1[8:1]/8-4[8:1],4b/8b,{8}8-4[8:1],6-1[8:1],8,6,
3>6[16:3],1,7,5h[8:1],,6,8,2,
{4}3-7[8:1]/4-8[8:1],4b/3b,{8}6/5,{16}3,4,{8}2-4[8:1],1-5[8:1],
2-7[8:1],1,2,6h[4:1],,5,{4}8/1-5[8:1],
{8}8-4[8:1],8,2-5[8:1],2,7-4[8:1],7,{4}1-5[8:1],
{8}1b/8-4[8:1],7,8b/2-5[8:1],1,2/7b<4[8:1],7>2[8:1],7-3[8:1],7,
{1}7bpp2[8:7]*pp2[8:7],
{8},,,2q4[8:9]/6q8[8:9],,,,,,,,,,,,,{4}1b,
2b,3b,{8}4w8[8:1],5/3,
{4}4,8b>3[8:1],{8}8-5[8:1],4,8,3,
2-6[8:1],6,2,5,1<6[8:1],4,1,3,
{16}5/2,6/3,,,4/7b>2[8:1],6/3b,,,{8}7-4[8:1],3,7,2,
4/3,5/6,8/1-5[8:1],4,1,8-3[8:1],{4}7-4[8:1],
E
