&title=Eureka
&artist=sasakure.UK x ArmyTom w/z Bitplane
&first=0.073
&des=Kurage
&lv_5=14+
&inote_5=(150)
{1},
{4}
1-7-2-6-3-5[16:25],,,,5<6<7>8>1>2>3<4[16:7],,,,
1-7-2-6-3-5[16:25],,,,5<6<7>8>1>2>3<4[16:7],,,,
{4}
{16}1h[16:11],,,A7,,,E6,,C,,,A4,,,A3,,
{16}1h[16:11],,,A7,,,E6,,C,,,A4,,A8,,,
1s5[16:10],,,A7,,,E6,,C,,,A4,,,A3,,
4v3[8:1],,,6,,6v7[8:1],,,1s5[4:1],,,,,,,,
{16}
7h[8:1],,5,6,4,5,3h[8:1],,5,4,6,5,7-3[8:1],,,,
73,,2,2,1-3[8:1]*-5[8:1],,8,,{32}E2,B2,,,{8},4,{16},,
4/3-5[32:3],,,6-3[8:1],3,,7h[16:1],,7-5[32:3],,,4-7[8:1],7,,3h[16:1],,
3-5[32:3],,,6-3[8:1],3,,7pp2[16:7],,7h[16:1],,,5h[16:1],,,3h[16:1],,
4-1[8:1],,,,1-6[8:1]/4-7[8:1],,,,1-4[8:1],,,,14,,,,
{12}6,2,2,{16}8-6[8:1]*-4[8:1],1,7,1,{32}E8,B7,,,{8},5,{16},,
5/6-4[32:3],,,3-6[8:1],6,,2h[16:1],,2-4[32:3],,,5-2[8:1],2,,6pp2[32:15],,
6h[16:1],,,4h[16:1],,,2h[16:1],,3-5b[8:1],,,1-5b[8:1]/3,,,7,7,
{16}
Cf,,7-5[8:1],8,6,,73,,2-8[8:1],4,3,,2/7-3[8:1],,,,
73,,2,2,1-4[8:1]*-6[8:1],,8,,{32}B1,C,,,{8},37,{16},,
45,,5h[8:1]/7h[8:1],,,3h[8:1]/4h[8:1],,,{32}1>4[8:1]/5<8[8:1],B1/B5,C,,{8},1-6[8:1]/5-1[8:1],,
,,{16}3qq4[16:5],4,2,4,3,,{24}E5,E6,E7,E8,,,D5,D6,D7,
{16}D8,,2-4[8:1],1,3,,26,,7-1[8:1],5,6,,7/2-6[8:1],,,,
26,,7,7,8-5[8:1]*-3[8:1],,1,,{32}B8,C,,,{8},62,{16}5,5,
4,,2h[8:1]/4h[8:1],,,5h[8:1]/6h[8:1],,,3-7[8:1],4,2,5,3,,,,
{32}E1,E2,E3,E4,E5,E6,E7,E8,A1,A2,A3,A4,A5,A6,A7,A8,E1,E2,E3,E4,E5,E6,E7,E8,A1,A2,A3,A4,A5,A6,A7,A8,
{4}Ch[24:43],,{16},,,E2,,,,,E7,,,,,,,E4,{4},,
{4}Ch[24:43],,{16},,,E2,,,,,E7,,,,,,,E4,{4},,
{4}Ch[24:43]/1-4[8:1],,4-1[8:1],,1-4[8:1],,4-1[8:1],,
{4}Ch[4:3]/1-4[8:1],,4-1[8:1],,{16}1/C,,,7/C,,,3/C,,,5/C,,,{4},
{16}7-4[8:1]/3,,,5-1[8:1],7,,3<7[12:2],,{12}2,2,2,2,E8/B7,B3/E4,
{16}6-1[8:1],,,2-6[8:1],6,,4V68b[16:3],,{12}3v1b[8:1],3,3,,,,
{16}2-5[8:1]/6,,,4-8[8:1],2,,6>2[12:2],,{12}7,7,7,7,E2/B2,B6/E6,
{16}3-8[8:1],,,7-3[8:1],3,,5pp4b[16:5],,{12}6<8b[8:1],6,6,,,,
{16}3h[8:1]/1,,,7/1h[8:1],,,5/7h[8:1],,,5h[8:1]/3,,,3h[8:1]/1h[256:1],,,7h[256:1]/1h[8:1],
,,5h[256:1]/7h[8:1],,,5h[8:1]/3h[256:1],,,{32}3h[8:1]/A1,B1,{16},,{32}1h[8:1]/A7,B7,{16},,{32}7h[8:1]/A5,B5,{16},
,{32}A3/5h[8:1],B3,{16},,{32}3h[8:1]/A1,B1,{16}Cf,,{32}1h[8:1]/A7,B7,{16}Cf,,{32}7h[8:1]/A5,B5,{16}Cf,,{32}A3/5h[8:1],B3,{16}Cf,,
(200){32}3h[8:1]/A1,B1,Cf,,{8},(150)D3/D7,(200){16}E6,E2,(150)E8,E4,E7,E3,Cf,
(225){16}2x,6x,2x,6x,2x,6x,2x,6x,2x,6x,2x,6x,2x,6x,2x,6x,2,6,2,6,2,6,2,6,2,6,2,6,2,6,2,6,2h[256:1],6h[256:1],2h[256:1],6h[256:1],2h[256:1],6h[256:1],2h[256:1],6h[256:1],2h[256:1],6h[256:1],2h[256:1],6h[256:1],2h[256:1],6h[256:1],2h[256:1],6h[256:1],
(150){4}2>6[4:3],,E1,,8>4[4:3],,,,
6<2[4:3],,E5,,{8}4v3[8:1],{16},6,,6v7[8:1],,,1s5[4:1],,,,,,,,
{4}7<3[4:3],,E1,,1<5[4:3],,,,
3>7[4:3],,E5,,5w1[8:5],,,,
3qq4[16:8]/7>2[16:5],,,,6pp4[16:9]/2<7[16:5],,,,
3qq6[16:10]/7>2[16:5],,,,{8}4v3[8:1],{16},6,,6v7[8:1],,,1s5[4:1],,,,,,,,
{8}7-5[8:1],8,17,,{12}3,4,3,6,5,6,{8}2-6[8:1],1,28,,{16}7,5,6,5,7,,7,,
{8}8<5[8:1]/1,2,84,,{16}3,4,2,5,4,7,5,6,{4}1s5[32:5]*z5[32:5],,5-1b[8:1],,
{16}
2,4,3,4,2,5,4,5,3,4,2,6,5,6,7,6,
8b,6,1,8,2,1,2,4,3,6,5,7,4,5,3,3,
4,2,4,2,4,5,4,5,7b,5,7,5,3b,5,3,5,
1b,,7,3,7,5,5,5,4-2[8:1]/6-8[8:1],,C5,B5,,,,,
7,5,6,5,7,4,5,4,6,5,7,3,4,3,2,3,
1b,3,8,1,7,8,7,5,6,3,4,2,5,4,6,6,
5,7,5h[16:1],7,5,4h[16:1],5,4,2b,4,2,4,6b,4,6,4,
8b,,2,6,2,4,4,4,5-7[8:1]/3-1[8:1],,C4,B4,,,,,
2b-4[8:1],1,3,7,2,,6,5,7-3[8:1],3,8,2,7,,1,1,
4-6[8:1],3,5,2,4,,8,7,2-6[8:1],6,3,1,2,,8,8,
4-2[8:1],3,5,7,4,,8,8,1-5[8:1],7,2,6,1,,7,7,
4-2[8:1],3,5,7,4,,8,8,1-5[8:1],7,2,6,1,,7,,
7b-5[8:1],8,6,2,7,,3,4,2-6[8:1],6,1,7,2,,8,8,
5-3[8:1],6,4,7,5,,1,2,7-3[8:1],3,6,8,7,,1,1,
5-7[8:1],6,4,2,5,,1,1,8-4[8:1],2,7,3,8,,2,2,
{4}5pp4>6[8:5],,1-5b[32:3],,
{16}3b-5[32:3]/4b,,,6-2[32:3]/3,,,67,,{12}8,8,8,A7/B7/3,A6/B6/2,A5/B5/1,
{16}8-4[16:1],,,5-2[16:1]/8,,,56,,{12}7,{24}7,8,7,,{12}18,{48}D2/D8,A2/A7,{8}D3/D7,
{16}5b>2[8:1]/4b,,,56,,,7,7,8<5[8:1],,,81,,,2,2,
3>8[8:1],,,34,,,5,5,{24}7-3b[8:1],8,1,2,3,4,{4}5h[4:1],
{16}6b-4[16:1],,,3-7[32:3]/6,,,32,,{12}1,1,1,A2/B2/6,A3/B3/7,A4/B4/8,
{16}1-5[32:3],,,4-7[32:3]/1,,,43,,{12}2,{24}2,1,2,,{12}81,{48}D8/D2,A7/A2,{8}D7/D3,
{16}4b<7[8:1]/5b,,,34,,,2,2,1>4[8:1],,,18,,,7,7,
{32}3,4,5,6,7,8,1,2,3,4,5,6,7,8,1,2,3-7[8:1]/7-3[8:1],6,5,4,3,2,1,8,{4}Cf,
{24}3,4,2,4,,,7,5,6,5,,,{12}3/4-2[12:1],4/5-1[12:1],5/6-8[12:1],,,,
A1/E2/E1/B1,,,{16}3h[16:1],7h[16:1],1h[16:1],5h[16:1],{24}2-6[8:1],6,4,{8}8,26,,
{16}5b>2[8:1]/4b,,6,5,6,,7,7,8<5[8:1],,1,8,1,,2,2,
3>8[8:1],,4,3,4,,5,5,{24}7-3b[8:1],8,1,2,3,4,{4}5h[4:1],
{24}6,5,7,5,,,2,4,3,4,,,{12}6/5-7[12:1],5/4-8[12:1],4/3-1[12:1],,,,
A8/E8/E1/B8,,,{16}6h[16:1],2h[16:1],8h[16:1],4h[16:1],{24}7-3[8:1],3,5,{8}1,73,,
{16}4b<7[8:1]/5b,,3,4,3,,2,2,1>4[8:1],,8,1,8,,7,7,
6<1[8:1],,5,6,5,,4,4,{24}2,1,8,7,6,5,{32}24,1,8,7,6,5,4,3,2b/6b,
