&title=Dream Flower
&artist=KLYDIX
&first=0
&des=Yume
&lv_5=13+
&inote_1=(150)
{8},,,,4,3,2,1,
(75)
{8}2p5p1[2:3]/6,,2,7h[8:1],,7,6,5,2,3h[8:1],,{16}8,8,{8}7h[8:1],,{16}5,6,7,8,
{8}7q4q2[2:3],,7,8,1,2,3,4,5h[8:1],,6,{16}8,8,{8}7h[8:1],,{16}4,3,2,1,
{8}2b-5[8:1]/7bh[4:1],,2,1,7-4[8:1]/2,3,2/7,3,5-1[8:1]/2,4,5/7,{16}8,8,7-4[8:1]/1,8,6,,7/4,3,2,1,3-8[8:1]/5h[8:1],,,,5/3,6,7,8,7-5[8:1]/3,1,2,,7/4,3,2,1,1-4[8:1]/8h[8:1],,,,1/6,,7,,4-2[8:1]/5,1,3,,6/4,{32}5,6,{8}7h[8:1],
{8}1bp4p7p2[2:3],4,5,,7h[8:1],,,{16}2,1,{8}2h[8:1],,4,,3h[8:1],,{16},5,6,8,{8}7q5q3q1[2:3],5,4,,2h[8:1],,,{16}3,2,{8}8,7,6h[8:1],,7h[2:1],,,,
{8}1b-4[8:1],8-5[8:1],1,8,2-5[8:1],7-4[8:1],2,7,3-5[8:1],6-4[8:1],3,6,{32}1x-5[8:1],2x,1x,2x,8x-4[8:1],7x,8x,7x,1x,8x,7x,6x,8x,1x,2x,3x,
{16}5,5,4,4,6,6,3,3,7,7,2,2,8,8,1,1,{32}1,8,1,8,2,7,2,7,1,2,3,4,5,6,7,8,{8}1bh[4:1],,{16}5s1[8:1],6,7,8,
{4}5b-7>8[8:1],5-3>2[8:1]/3h[8:1],5-1[16:1]/7h[8:1],{32}8<7<6>5>4[8:1]*-6-4[8:1]/5,,3,3,2,2,3,3,{48}8z4[8:1]/D8,A7,D7,A6,D6,A5,,,,,,,{24}6/8>3[8:1],6,6,7,,,{16}8-5[8:1]/7,,,,4s8[8:1]*-8[8:1]/8,3,2,1,{8}4<7[8:1],,4>1[8:1]/2,8,7/4-8[8:1],6,5-2[8:1]/4,6,{16}5-8[8:1],7,7,7,5s1[8:1],3,3,3,5h[4:1],,,,4<7[8:1]*-6<7[8:1],3,2,1,4z8[8:1]/3,,2h[64:1],2h[64:1],7h[8:1]/4>3>2<1[8:1],,,,{24}8/4v1[8:1],7,6,7,6,5,{8}6-8[16:1]/4,6-4[16:1],6-2[16:1],6,{16}8-5[8:1]/6,8,7,{64}7,,2,3,{8}4h[8:1]/8-3[8:1],,5z1[8:1]/8,7,{24}5>2[8:1],6,7,6,7,8,{4}6h[8:1]/5q1[8:1],8h[8:1]/5-2<1[8:1],7h[8:1]/5v8[8:1],2h[8:1]/5-7>8[8:1],2h[8:1]/5v7[8:1],3h[8:1]/5-1[8:1]*s1[8:1],C1f/5b,
{16}6,,6,,6/B3,,6,4,6v1[8:1]/3,,6,,8h[8:1]/6,,,,3/5,,3,,3/B6,,3,5,3-1v6[8:1],,8,,3,C1,C1,,5/4,,5,,5/B1,,5,3,5v2<1[8:1],,5,,7h[8:1]/5,,,,4-2<1[8:1]/6,,6,,8h[8:1]/4,,,,2-4-6[8:1],,4,,7,3,1,5,
{16}7h[4:1]/4p1[5:1],,2,3,4,,6,,5p8[7:1],6,7,,5/1h[8:1],,,,2q5[5:1]/6h[4:1],,2,3,2,,6,,6v1[7:1],7,6,,6/3,C1,C1,,8p4[7:1]/2h[4:1],,7,7,8,,2,3,2q8[6:1],4,3,,2/6h[8:1],,,,4q1[5:1]/5h[8:1],,3,,8h[8:1]/4,,,,{32}3,,3,,4/6,,7,5,6,4,5,,2/4,,1,8,
(150)
{8}1bh[1:1],,,,5,6,7,8,
(75)
{8}7q5q1q7[2:3],4,{128}7/3,,,,,,,,,,,,,,,1x,{8}2h[8:1],,2,3,{128}4,,,,,,,,,,,,,,,4x,{16}3,,5,,6,,8,8,2,,3,,4,3,2,1,2p5p8p2[2:3],,5,,6/2,,1,,8,,7,,6,,{128}5,,,,,,,,,,,,,,,5x,{16}6,,4,,3,,1,1,6h[8:1],,,,5,6,7,8,{8}7-4[8:1]/2,7/3,7/4-2[8:1],1,2-5[8:1]/4,8/2,7/2,6,7/8-4[8:1],5,8/1-6[8:1],{16}2,2,1/3-1[8:1],,4,,3/5,6,7,8,E1,E2,E3,E4,E5,E6,E7,E8,C1h[16:1]/E1,B8,B7/E8,E7,C1h[16:1]/E5,B4,B3/E4,E3,{32}8x,1,2,3,4,5,6,7,1x,8,7,6,5,4,3,2,{16}1bh[4:1]/5b,,,,5s1[8:1],6,7,8,
{4}A5/5b-7>8[8:1],A5f/5-3>2[8:1],A5f/5v8[8:1],{32}5/1-7-5[8:1]*<5[8:1]*<8-6>5[8:1],,2,2,3,3,2,2,{48}1z5[8:1]/D1,A8,D8,A7,D7,A6,,,,,,,6/1>4[8:1],,6,,6,,{8}7,7h[8:1]/1p5[8:1],,{16}4p8[8:1]*-8[8:1]/1,3,2,1,{48}E4/4<7[8:1],B3,B2,B1,E1,,{8},4-1[8:1]/2,8,6/4v7[8:1],2,3-8[8:1]/4,5,{16}C1/3-6[8:1],5,5,5,C1/3-7[8:1]*z7[8:1],2,2,2,3h[4:1],,,,5-1b[32:1],6,7,8,5>2[8:1],,{64}8x,7x,6x,,8x,7x,6x,,{4}5b<6<7>8[8:1],{24}5v7[8:1]/1,2,3,2,3,4,{8}5/3-1[16:1],3-5[16:1],3-7[16:1],3,{16}3/1>4b[128:1],1,2,{64}2,8x,7x,6x,{8}5hx[4:1],,4-7[8:1],7<5[8:1],5-2[8:1],2>4[12:1],{4}8v5[8:1]*-5[8:1],1v4[8:1]*-4[8:1],8<5[8:1]*-5[8:1],1-4[8:1]*>4[8:1],7-5[8:1]*<5[8:1],2-4[8:1]*>4[8:1]/7,C1f/2b,
{16}6,,E2,E8,{32}2,5,3,6,4,7,{64}E5,E6,E7,E8,
{16}6v1[12:1],6,6,6,6-4[12:1],6,6,6,5q1[12:1]/6,5,5,5,5/7q4[10:1],7,7,7,7/3-6[12:1],3,3-8[12:1],3,3>1[12:1]/4,4,4/3,4,3/7-5[12:1],7,7v4[12:1],7,6/7q3[12:1],6,6/7,6,2-5[12:1]/7,2,2v8[12:1],2,2<8[12:1]/3,3,3/2,3,2/7p2[10:1],7,7,7,8q5[10:1]/7,8,8,8,2pp5[10:1]/8,2,2,2,6/2,6,{32}6,3,6,,
{16}5<8[8:1],8,7,6,5/4v2[8:1],1,2,3,4/6<8[12:1],7,5,7,6/3-1[12:1],2,4,2,7>8[24:1]/2,6,2-8[12:1],3,7v4[12:1],4,2,6,7<5[12:1],3,2,3,5-3[12:1]/7,3,6,2,5/8<5[8:1],5,6,7,4v1[12:1]/8,1,2,3,4/7<5[12:1],5,6,5,7/3-1[12:1],4,3,4,6-1[16:1],8-3[16:1],2-5[16:1],4-7[16:1],6>4>2[6:1],8,2,4,6,8,7,8,8<8[4:3],{32}3x,2x,1hx[8:1],,,,
{4}8b/C1f,,,{16}5,6,7,8,
{8}2p5[2:3]/6,,2,7h[8:1],,7,6,5,2,3h[8:1],,{16}8,8,{8}7h[8:1],,{16}4,3,2,1,
{8}7q4[2:3]/6,,7,8,1,2,3,4,5h[8:1],,6,{16}8,8,{8}7h[8:1],,{16}5,6,7,8,
{8}2p5p8p3p6p1p4p7p2[4:13],,2,1h[8:1],,2,3,4,6,5,6,{16}7,7,{8}6h[8:1],,{16}E4,B3,B2,E2,C1h[8:1],,,,E6,B6,B7,E8,C1h[8:1],,,,E1,B1,B2,E3,C1h[2:1],,B4,,B5,,,,
&inote_5=(150)
{8},,,,4,3,2,1,
(75)
{8}2p5p1[2:3]/6,,2,7h[8:1],,7,6,5,2,3h[8:1],,{16}8,8,{8}7h[8:1],,{16}5,6,7,8,
{8}7q4q2[2:3],,7,8,1,2,3,4,5h[8:1],,6,{16}8,8,{8}7h[8:1],,{16}4,3,2,1,
{8}2b-5[8:1]/7bh[4:1],,2,1,7-4[8:1]/2,3,2/7,3,5-1[8:1]/2,4,5/7,{16}8,8,7-4[8:1]/1,8,6,,7/4,3,2,1,3-8[8:1]/5h[8:1],,,,5/3,6,7,8,7-5[8:1]/3,1,2,,7/4,3,2,1,1-4[8:1]/8h[8:1],,,,1/6,,7,,4-2[8:1]/5,1,3,,6/4,{32}5,6,{8}7h[8:1],
{8}1bp4p7p2[2:3],4,5,,7h[8:1],,,{16}2,1,{8}2h[8:1],,4,,3h[8:1],,{16},5,6,8,{8}7q5q3q1[2:3],5,4,,2h[8:1],,,{16}3,2,{8}8,7,6h[8:1],,7h[2:1],,,,
{8}1b-4[8:1],8-5[8:1],1,8,2-5[8:1],7-4[8:1],2,7,3-5[8:1],6-4[8:1],3,6,{32}1x-5[8:1],2x,1x,2x,8x-4[8:1],7x,8x,7x,1x,8x,7x,6x,8x,1x,2x,3x,
{16}5,5,4,4,6,6,3,3,7,7,2,2,8,8,1,1,{32}1,8,1,8,2,7,2,7,1,2,3,4,5,6,7,8,{8}1bh[4:1],,{16}5s1[8:1],6,7,8,
{4}5b-7>8[8:1],5-3>2[8:1]/3h[8:1],5-1[16:1]/7h[8:1],{32}8<7<6>5>4[8:1]*-6-4[8:1]/5,,3,3,2,2,3,3,{48}8z4[8:1]/D8,A7,D7,A6,D6,A5,,,,,,,{24}6/8>3[8:1],6,6,7,,,{16}8-5[8:1]/7,,,,4s8[8:1]*-8[8:1]/8,3,2,1,{8}4<7[8:1],,4>1[8:1]/2,8,7/4-8[8:1],6,5-2[8:1]/4,6,{16}5-8[8:1],7,7,7,5s1[8:1],3,3,3,5h[4:1],,,,4<7[8:1]*-6<7[8:1],3,2,1,4z8[8:1]/3,,2h[64:1],2h[64:1],7h[8:1]/4>3>2<1[8:1],,,,{24}8/4v1[8:1],7,6,7,6,5,{8}6-8[16:1]/4,6-4[16:1],6-2[16:1],6,{16}8-5[8:1]/6,8,7,{64}7,,2,3,{8}4h[8:1]/8-3[8:1],,5z1[8:1]/8,7,{24}5>2[8:1],6,7,6,7,8,{4}6h[8:1]/5q1[8:1],8h[8:1]/5-2<1[8:1],7h[8:1]/5v8[8:1],2h[8:1]/5-7>8[8:1],2h[8:1]/5v7[8:1],3h[8:1]/5-1[8:1]*s1[8:1],C1f/5b,
{16}6,,6,,6/B3,,6,4,6v1[8:1]/3,,6,,8h[8:1]/6,,,,3/5,,3,,3/B6,,3,5,3-1v6[8:1],,8,,3,C1,C1,,5/4,,5,,5/B1,,5,3,5v2<1[8:1],,5,,7h[8:1]/5,,,,4-2<1[8:1]/6,,6,,8h[8:1]/4,,,,2-4-6[8:1],,4,,7,3,1,5,
{16}7h[4:1]/4p1[5:1],,2,3,4,,6,,5p8[7:1],6,7,,5/1h[8:1],,,,2q5[5:1]/6h[4:1],,2,3,2,,6,,6v1[7:1],7,6,,6/3,C1,C1,,8p4[7:1]/2h[4:1],,7,7,8,,2,3,2q8[6:1],4,3,,2/6h[8:1],,,,4q1[5:1]/5h[8:1],,3,,8h[8:1]/4,,,,{32}3,,3,,4/6,,7,5,6,4,5,,2/4,,1,8,
(150)
{8}1bh[1:1],,,,5,6,7,8,
(75)
{8}7q5q1q7[2:3],4,{128}7/3,,,,,,,,,,,,,,,1x,{8}2h[8:1],,2,3,{128}4,,,,,,,,,,,,,,,4x,{16}3,,5,,6,,8,8,2,,3,,4,3,2,1,2p5p8p2[2:3],,5,,6/2,,1,,8,,7,,6,,{128}5,,,,,,,,,,,,,,,5x,{16}6,,4,,3,,1,1,6h[8:1],,,,5,6,7,8,{8}7-4[8:1]/2,7/3,7/4-2[8:1],1,2-5[8:1]/4,8/2,7/2,6,7/8-4[8:1],5,8/1-6[8:1],{16}2,2,1/3-1[8:1],,4,,3/5,6,7,8,E1,E2,E3,E4,E5,E6,E7,E8,C1h[16:1]/E1,B8,B7/E8,E7,C1h[16:1]/E5,B4,B3/E4,E3,{32}8x,1,2,3,4,5,6,7,1x,8,7,6,5,4,3,2,{16}1bh[4:1]/5b,,,,5s1[8:1],6,7,8,
{4}A5/5b-7>8[8:1],A5f/5-3>2[8:1],A5f/5v8[8:1],{32}5/1-7-5[8:1]*<5[8:1]*<8-6>5[8:1],,2,2,3,3,2,2,{48}1z5[8:1]/D1,A8,D8,A7,D7,A6,,,,,,,6/1>4[8:1],,6,,6,,{8}7,7h[8:1]/1p5[8:1],,{16}4p8[8:1]*-8[8:1]/1,3,2,1,{48}E4/4<7[8:1],B3,B2,B1,E1,,{8},4-1[8:1]/2,8,6/4v7[8:1],2,3-8[8:1]/4,5,{16}C1/3-6[8:1],5,5,5,C1/3-7[8:1]*z7[8:1],2,2,2,3h[4:1],,,,5-1b[32:1],6,7,8,5>2[8:1],,{64}8x,7x,6x,,8x,7x,6x,,{4}5b<6<7>8[8:1],{24}5v7[8:1]/1,2,3,2,3,4,{8}5/3-1[16:1],3-5[16:1],3-7[16:1],3,{16}3/1>4b[128:1],1,2,{64}2,8x,7x,6x,{8}5hx[4:1],,4-7[8:1],7<5[8:1],5-2[8:1],2>4[12:1],{4}8v5[8:1]*-5[8:1],1v4[8:1]*-4[8:1],8<5[8:1]*-5[8:1],1-4[8:1]*>4[8:1],7-5[8:1]*<5[8:1],2-4[8:1]*>4[8:1]/7,C1f/2b,
{16}6,,E2,E8,{32}2,5,3,6,4,7,{64}E5,E6,E7,E8,
{16}6v1[12:1],6,6,6,6-4[12:1],6,6,6,5q1[12:1]/6,5,5,5,5/7q4[10:1],7,7,7,7/3-6[12:1],3,3-8[12:1],3,3>1[12:1]/4,4,4/3,4,3/7-5[12:1],7,7v4[12:1],7,6/7q3[12:1],6,6/7,6,2-5[12:1]/7,2,2v8[12:1],2,2<8[12:1]/3,3,3/2,3,2/7p2[10:1],7,7,7,8q5[10:1]/7,8,8,8,2pp5[10:1]/8,2,2,2,6/2,6,{32}6,3,6,,
{16}5<8[8:1],8,7,6,5/4v2[8:1],1,2,3,4/6<8[12:1],7,5,7,6/3-1[12:1],2,4,2,7>8[24:1]/2,6,2-8[12:1],3,7v4[12:1],4,2,6,7<5[12:1],3,2,3,5-3[12:1]/7,3,6,2,5/8<5[8:1],5,6,7,4v1[12:1]/8,1,2,3,4/7<5[12:1],5,6,5,7/3-1[12:1],4,3,4,6-1[16:1],8-3[16:1],2-5[16:1],4-7[16:1],6>4>2[6:1],8,2,4,6,8,7,8,8<8[4:3],{32}3x,2x,1hx[8:1],,,,
{4}8b/C1f,,,{16}5,6,7,8,
{8}2p5[2:3]/6,,2,7h[8:1],,7,6,5,2,3h[8:1],,{16}8,8,{8}7h[8:1],,{16}4,3,2,1,
{8}7q4[2:3]/6,,7,8,1,2,3,4,5h[8:1],,6,{16}8,8,{8}7h[8:1],,{16}5,6,7,8,
{8}2p5p8p3p6p1p4p7p2[4:13],,2,1h[8:1],,2,3,4,6,5,6,{16}7,7,{8}6h[8:1],,{16}E4,B3,B2,E2,C1h[8:1],,,,E6,B6,B7,E8,C1h[8:1],,,,E1,B1,B2,E3,C1h[2:1],,B4,,B5,,,,
