&title=Every End...
&artist=Dimrain47
&first=0.07
&des=IsxI114
&lv_5=14+
&inote_5=(150){16},,,,,,,,,,,,,,,,4,,,,,,,,,,,,,,,,4,,,,,,,,,,,,,,,,5,,,,,,,,3,,,,1,,,,
{4}4,4,4,4,4,4,4,4,5,5,5,5,5,5,5,5,4,35,5,46,4,35,5,46,4,35,5,46,4,35,5,46,
{8}4,6,5,6,4,6,5,6,5,3,4,3,5,3,4,3,4,6,5,6,4,6,5,6,5,3,4,3,5,3,4,3,
4,6h[8:1],5,6h[8:1],4,6h[8:1],5,6h[8:1],5,3h[8:1],4,3h[8:1],5,3h[8:1],4,3h[8:1],4,6h[8:1],5,6h[8:1],4,6h[8:1],5,6h[8:1],5,3h[8:1],4,3h[8:1],5,3h[8:1],4,3h[8:1],
{16}4,5,6,7,8,1,2,3,4,5,6,7,8,1,2,3,4,5,6,7,8,1,2,3,4,5,6,7,8,1,2,3,4,5,6,7,8,1,2,3,
4,5,6,7,8,1,2,3,4,5,4,5,4,5,4,5,{24}4,5,4,{16}5,4,5,4,{24}5,4,5,{16}4h[16:7],,,,,,,6h[16:5],,,,,7,8,1,2,
3/8b,4,,4,5,4,,4,6,4,5,4,7h[8:1],,5h[8:1],,6,3,,3,4,3,,3,5,3,4,3,7h[8:1],,5h[8:1],,6,2,,2,3,2,,2,4,2,3,2,7h[8:1],,5h[8:1],,6,1,,1,2,1,,1,3,1,2,1,8h[8:1],,7h[8:1],,6h[8:1],,1h[8:1],,2,1,,1,3,1,2,1,8h[8:1],,6h[8:1],,7,2,,2,3,2,,2,4,2,3,2,8h[8:1],,6h[8:1],,7,3,,3,4,3,,3,5,3,4,3,8h[8:1],,6h[8:1],,7,4,,4,5,4,,4,6,4,5,4,3,2,8,7,1b/6,5,,5,4,5,,5,3,5,4,5,2h[8:1],,4h[8:1],,3,6,,6,5,6,,6,4,6,5,6,2h[8:1],,4h[8:1],,3,7,,7,6,7,,7,5,7,6,7,2h[8:1],,4h[8:1],,3,8,,8,7,8,,8,6,8,7,8,1h[8:1],,2h[8:1],,3h[8:1],,8h[8:1],,7,8,,8,6,8,7,8,1h[8:1],,3h[8:1],,2,7,,7,6,7,,7,5,7,6,7,1h[8:1],,3h[8:1],,2,6,,6,5,6,,6,4,6,5,6,1h[8:1],,3h[8:1],,2,5,,5,4,5,,5,3,5,4,5,3,2,6,7,
1b,8,,1,8,,1,8,,1,8,1,7,,2,,7,2,,7,2,,7,2,,7,2,7,3,,6,,3,6,,3,6,,3,6,,3,6,3,5,,4,,5,4,,5,4,,5,4,,5,4,5,3,,6,,3,4,,3,4,,3,4,,3,4,3,7,,8,,6,5,,6,5,,6,5,,6,5,6,5,,1,,2,4,,2,4,,2,4,,2,4,2,8,,1,,27,,6,5,7,,46,,38,,7,6,5,4,3,2,
1b,1,,8,8,,2,2,,7,7,,3,4,3,,6,6,,4,4,,8,8,,2,2,,6,5,6,,3,3,,6,6,,2,2,,7,7,,2,1,2,,5,5,,3,3,,7,7,,2,2,,8,1,8,,1,1,,2,2,,3,3,,4,4,,4,5,4,,5,5,,6,6,,7,7,,8,8,,8,1,8,,2,2,,3,3,,4,4,,5,5,,4,5,4,,6,6,,7,7,,8,8,1,2,3,2,1,8,7,6,
5/1b,4,,4,3,,3,2,,2,1,2,1,,18,,8,7,,7,6,,6,5,,5,4,5,4,,34,,3,2,,2,1,,1,8,,8,7,8,7,,67,,6,5,,5,4,,4,3,,3,2,3,2,,12,,2,3,,3,4,,4,5,,5,6,5,6,,67,,7,6,,6,5,,5,4,,4,3,4,3,,23,,2,4,,4,6,,6,8,,8,2,8,2,,24,,35,,6,7,81,2,35,6,78,1,2,3,14,2,3,4,
1b/5b,,2,5,8,,3,5,7,,4,5,6,,,,5,,,,46,,5,4,3,,5,,36,,4,,5,,,,46,,3,,5,,2,4,6,,17,,3,,,,45,,6,,25,,3,,47,,6,,28,,3,,5,,,,46,,7,,35,,6,,24,,5,,6,,,,46,,3,,57,,2,,35,,4,,5,,,,46,,7,,35,,6,,14,,2,,35,,,,6,,2,,18,,2,,
3b/5b,,4,,,,3,,2,,6,,25,,45,,73,,46,,,,2,,1,,5,,37,,47,,28,,18,,,,2,,3,,6,,25,,46,,17,,25,,,,1,,2,,6,,25,,41,,23,,35,,,,2,,4,,7,,35,,46,,25,,47,,,,3,,4,,6,,35,,57,,24,,57,,,,2,,4,,6,,46,,38,,4,,7,,28,,18,,7,,28,,37,,48,,
2b,1,2,1,2,,7,8,7,8,7,,1,8,1,,6,5,6,5,6,,3,4,3,4,3,,5,4,5,,4,5,4,5,4,,5,4,5,4,5,,3,6,3,,7,2,7,2,7,,2,7,2,7,2,,8,1,8,,2,1,2,1,2,,7,8,7,8,7,,1,8,1,8,3,4,3,4,3,,6,5,6,5,6,,4,5,4,5,3,6,3,6,3,,7,2,7,2,7,,1,8,1,8,3,7,2,6,1,5,8,4,37,48,15,26,37,8,1,2,
3/4b,4,4,4,4,4,4,4,4,,4,4,4,,4,,4,4,4,,4,,4,,4,,4,4,4,4,4,4,4,,4,,4,4,4,,4,,4,4,4,4,4,4,4,,4,,4,4,4,4,4,,4,4,4,,4,,
4,4,3,4,4,4,3,4,4,,3,4,4,,3,,4,4,3,,4,,3,,4,,3,4,4,4,3,4,4,,3,,4,4,3,,4,,3,4,4,4,3,4,4,,3,,4,4,3,4,4,,3,4,4,,3,,
4,4,4,4,3,4,4,4,4,,4,4,3,,4,,4,4,4,,3,,4,,4,,4,4,3,4,4,4,4,,4,,3,4,4,,4,,4,4,3,4,4,4,4,,4,,3,4,4,4,4,,4,4,3,,4,,
4,4,4,4,3,3,3,3,3,,3,3,4,,4,,4,4,4,,3,,3,,3,,3,3,4,4,4,4,4,,4,,3,3,3,,3,,3,3,4,4,4,4,4,,4,,3,3,3,3,3,,3,3,4,,4,,
4,4,3,3,3,3,4,4,4,,3,3,3,,4,,4,4,3,,3,,4,,4,,3,3,3,3,4,4,4,,3,,3,3,4,,4,,3,3,3,3,4,4,4,,3,,3,3,4,4,4,,3,3,3,,4,,
4,4,4,4,4,4,4,4,4,4,4,4,4,4,4,4,4,4,4,4,4,4,4,4,4,4,4,4,4,4,4,4,4,4,4,4,4,4,4,4,4,4,4,4,4,4,4,4,4,4,4,4,4,4,4,4,{24}3,5,2,{16}6,1,7,2,{24}6,3,5,
{16}4h[16:7],,,,,,,6h[16:5],,,,,7,8,1,2,
3/8b,4,,4,5,4,,4,6,4,5,4,7h[8:1],,5h[8:1],,6,3,,3,4,3,,3,5,3,4,3,7h[8:1],,5h[8:1],,6,2,,2,3,2,,2,4,2,3,2,7h[8:1],,5h[8:1],,6,1,,1,2,1,,1,3,1,2,1,8h[8:1],,7h[8:1],,6h[8:1],,1h[8:1],,2,1,,1,3,1,2,1,8h[8:1],,6h[8:1],,7,2,,2,3,2,,2,4,2,3,2,8h[8:1],,6h[8:1],,7,3,,3,4,3,,3,5,3,4,3,8h[8:1],,6h[8:1],,7,4,,4,5,4,,4,6,4,5,4,3,2,8,7,1b/6,5,,5,4,5,,5,3,5,4,5,2,2,4h[8:1],,3,6,,6,5,6,,6,4,6,5,6,2,2,4h[8:1],,3,7,,7,6,7,,7,5,7,6,7,2,2,4h[8:1],,3,8,,8,7,8,,8,6,8,7,8,1,1,2h[8:1],,3,8,,8,7,8,,8,6,8,7,8,1,1,3h[8:1],,2,7,,7,6,7,,7,5,7,6,7,1,1,3h[8:1],,2,6,,6,5,6,,6,4,6,5,6,1,1,3h[8:1],,2,5,,5,4,5,,5,3,5,4,5,3,2,6,7,1b,8,,1,8,,1,8,,1,8,1,7,,2,,7,2,,7,2,,7,2,,7,2,7,3,,6,,3,6,,3,6,,3,6,,3,6,3,5,,4,,5,4,,5,4,,5,4,,5,4,5,3,,6,,3,4,,3,4,,3,4,,3,4,3,7,,8,,6,5,,6,5,,6,5,,6,5,6,5,,1,,2,4,,2,4,,2,4,,2,4,2,8,,1,,27,,6,5,7,,46,,38,,7,6,5,4,3,2,
1b,1,,8,8,,2,2,,7,7,,3,4,3,,6,6,,4,4,,8,8,,2,2,,6,5,6,,3,3,,6,6,,2,2,,7,7,,2,1,2,,5,5,,3,3,,7,7,,2,2,,8,1,8,,1,1,,2,2,,3,3,,4,4,,4,5,4,,5,5,,6,6,,7,7,,8,8,,8,1,8,,2,2,,3,3,,4,4,,5,5,,4,5,4,,6,6,,7,7,,8,8,1,2,3,2,1,8,7,6,
5/1b,4,,4,3,,3,2,,2,1,2,1,,18,,8,7,,7,6,,6,5,,5,4,5,4,,34,,3,2,,2,1,,1,8,,8,7,8,7,,67,,6,5,,5,4,,4,3,,3,2,3,2,,12,,2,3,,3,4,,4,5,,5,6,5,6,,67,,7,6,,6,5,,5,4,,4,3,4,3,,23,,2,4,,4,6,,6,8,,8,2,8,2,,24,,35,,6,7,81,2,35,6,78,1,2,3,14,2,3,4,5b/1b,2,,7,6,,3,4,,6,5,,3,5,4,,,,,,,,,,,,,,,,,,,,,,,,,,,,,,,,,,3,4,,2,5,,1,6,,8,7,,1,8,2,,1,2,,8,3,,7,4,,6,5,,6,4,5,,,,,,,,,,,,,,,,,,,,,,,,,,,,,,,,,,6,5,,7,4,,8,3,,1,2,,8,1
,8,1,
{4}7h[4:1],5h[16:7],3h[16:3],3h[4:1]/5,5h[4:1],3h[16:7],1h[16:3],1h[4:1]/3,3h[4:1],1h[16:7],7h[16:3],7h[4:1]/1,1h[4:1],7h[16:7],5h[16:3],5/7h[4:1],
2h[4:1],4h[16:7],6h[16:3],6h[4:1]/4,4h[4:1],6h[16:7],8h[16:3],8h[4:1]/6,6h[4:1],8h[16:7],2h[16:3],2h[4:1]/8,8h[4:1],2h[16:7],4h[16:3],24,
{16}4b/5b,,,,36,,,,5,,3,,46,,2h[8:1],,5,,,,46,,,,5,3,6,,45,,2h[8:1],,5,,,,46,,,,5,,3,,46,,2h[8:1],,5,,,,46,,,,5,4,6,4,5,3,2h[16:1]/7,6,1b,,,,8,,,,
4,,6,,53,,7h[8:1],,4,,,,53,,,,4,6,3,,54,,7h[8:1],,4,,,,53,,,,4,,6,,53,,7h[8:1],,4,,,,53,,,,4,5,63,4,53,6,2h[16:1],8,
1b,1,2,1,1,8,1,1,2,1,1,8,1,1,1,,8,8,7,8,8,1,8,8,7,8,8,1,8,8,8,,1,1,2,1,1,8,1,1,2,1,1,8,1,1,1,,8,8,7,8,8,1,8,8,7,8,8,1,8,8,8,,
3b,4,4,5,4,4,3,4,4,5,4,4,3,3,3,,6,5,5,4,5,5,6,5,5,4,5,5,6,6,6,,3,4,4,5,4,4,3,4,4,5,4,4,3,3,3,,6,5,5,4,5,5,6,5,5,4,5,5,6,6,6h[16:1],,
3,4,,3,4,,3,4,,3,4,,2,3,4,,3,4,,3,4,,3,4,,3,4,,3,4,5,,
2,4,,2,4,,2,4,,2,4,,2,3,4,,3,5,,3,5,,3,5,,3,5,,3,4,5,,
7h[16:62]/3,4,,3,4,,3,4,,3,4,,2,3,4,,3,4,,3,4,,3,4,,3,4,,3,4,5,,
2,4,,2,4,,2,4,,2,4,,2,3,4,,3,5,,3,5,,3,5,,3,5,,3,4,5,,
4b,6,,4,2,,4,6,,4,6,,2,4,4,,5,3,,5,7,,5,3,,5,3,,7,5,5,,
4,6,,4,2,,4,6,,4,6,,2,4,4,,5,3,,5,7,,5,3,,5,3,,7b,5,5,,
4b,6,2,4,2,6,4,6,2,4,2,6,4,4,2,,5,3,7,5,7,3,5,3,7,5,7,3,5,5,7,,
4,6,2,4,2,6,4,6,2,4,2,6,4,4,2,,
8,1,1,1,1,1,1,1,1,1,1,1,2b/8b,37,4b/6b,,
4b/5b,3,,6,46,,5,3,,3,4,,45,3,2,,
5,3,,6,46,,5,3,,3,4,,25,3,4,,
5,3,,6,46,,5,3,,3,4,,45,3,2,,
5,3,,6,46,,5,3,,3,4,,25,3,4,,
5b/4b,6,,3,53,,4,6,,6,5,,54,6,7,,
4,6,,3,53,,4,6,,6,5,,74,6,5,,
4,6,,3,53,,4,6,,6,5,,54,6,7,,
4,6,,3,53,,4,6,,6,5,,74,6,5,,
{8}5h[8:3],4,3,2h[8:5],,3,4,5,6h[8:3],7,8,1h[8:5],,8,7,6,5h[8:3],4,3,2h[8:5],,1,8,7,6h[8:3],5,4,3h[8:3],,4,5,6,
4b/7h[8:3],5,6,8h[8:5],,7,6,5,4h[8:3],5,3,2h[8:5],,1,3,4,5h[8:3],4,6,7h[8:3],,8,6,5,
{16}4,4,3,3,2,2,1,1,8,8,8,8,8,8,8,8,1b/7b,
,,,,,,,,,4,,,,,,4,,,,,,4,,,,4,,,,4,,4,,,,,,,,,,4,,,,,,4,,,,,,4,,,,4,,4,5,4,,2b/7b,
,,,,,,,,,5,,,,,,5,,,,,,5,,,,5,,,,5,,5,,,,,,,,,,5,,,,,,5,,,,,,5,,,,5,,5,4,5,,2b/7b,,
,,5,,,,,,4,,5,,,,4,,,,5,,4,,,,4,,5,,4,,4,,,,5,,,,,,4,,5,,,,4,,,,5,,4,,,,4,,4,5,4,,2b/7b,,,,4,,,,,,5,,4,,,,5,,,,4,,5,,,,5,,4,,5,,
4h[8:1],,,,5h[8:1]/3h[8:1],,,,5h[8:1],,,,4h[8:1]/6h[8:1],,,,4,,53,,5,,64,,3,,2h[16:1]/4h[16:1],,6,,7h[16:1]/5h[16:1],,
4b,5,,3,5,,2,5,,1,5,,46,,4,5,3,4,,3,4,,2,4,,1,4,,56,,4,5,2,3,,2,3,,1,3,,8,3,,15,,4,2,4,3,,5,4,,6,5,,7,6,,8,1,7h[8:1],,
4h[16:1],5,,3,5,,2,5,,1,5,,46,,4h[16:1],5h[16:1],3h[16:1],4,,3,4,,2,4,,1,4,,56,,4h[16:1],5h[16:1],2h[16:1],3,,2,3,,1,3,,8,3,,15,,37,,3,5,,5,6,,6,7,,7,8,,
1b,8,2b,1h[32:33],,,,,,,,,,,,,,,,,
{48}2b/8b,37,46,5,,,{16},5,4,,4,2,,2,1,,12,,18,,78,,,4,5,,5,7,,7,8,,78,,18,,12,,,3,4,,25,,6,5,6,,47,,6,4,5,5,,3,34,,2,2,5h[8:1],,1h[8:1],,8,,37,,2b,4,,4,5,,5,7,,7,8,,78,,18,,12,,,4,5,,5,3,,3,4,,25,,25,,16,,,8,7,,16,,3,5,4,,36,,7h[8:1],,2,1,1,1,1,1,1,1,2h,3,4/8h,7,6/1h,2,3/7h,6,
5b/1b,,2,,36,,2,5,4,7,2,5,2,5,1,5,8h[8:1],,1,,38,,7,4,5,2,7,4,7,4,8,4,1h[8:1],,8,,61,,2,5,4,6,3,5,2h[8:1],,1,8,37,4,,6,57,,4,4,5h[8:1],,2h[8:1],,7,,18,,2b/7b,,3,,45,,
2,5,4,7,2,5,2,5,1,5,8h[8:1],,1,,38,,7,4,5,2,7,4,8,5,1,6,2h[8:1],,8,,61,,2,5,4,6,3,5,2h[8:1],,6,,2,1,1,1,1,1,1,1,2h,3,4h/8h,7,6h/1h,2,3h/7h,6,
5b/1b,,2,,36,,4,7,,7,8,,78,,16,,25,,,3,5,,5,2,,2,1,,21,,83,,74,,,4,5,,26,,5,,4,,37,,,,6/2h[8:2],,,,4,,5,,6h[8:2],,4,,3,,,,
{8}36,,,4h[8:3],,,6h[8:2],,5h[8:6],,,6,,,7h[8:2],,1h[8:3],,,8h[8:5],,,3,,2h[8:8],,,,1h[8:4],,,,,,,
3h[8:3],,,5h[8:2],,4h[8:6],,,,5,,6h[8:2],,8h[8:3],,,7h[8:5],,,2,,1h[8:8],,,,8h[8:4],,,,,,,
4h[8:3],,,6h[8:2],,3h[8:6],,,4,,,7h[8:2],,1h[8:3],,,5h[8:5],,,3,,1h[8:4],,,,8h[8:4],,,,7-3[16:29],
