&title=あいつら全員同窓会
&artist=ずっと真夜中でいいのに。
&first=0.02
&des=NICOLABULA
&des_5=-nicolabula-
&lv_5=13
&inote_5=(131){4},,C,C,
{32}B8/8<8[8:13],C,{16}B4,{4},,,{8},{2}B2/E3/B3,
B4/B5/E5,
{32}B4/4<4[8:13],C,{16}B8,{4},,,{8},{2}B6/B7/E7,
E1/B8/B1,
{16}4/E8/B8,{8},{16}3/E6/B5,{8},2,,1,{4},{16}5/E2/B1,
{8},{16}6/E4/B4,{8},7h[8:1],{16},,,7,{8},8,
{16}4/B8/E8,{8},{16}3/E6/B5,{8},2,,1h[8:3],{4},{16}8,
2,7,1w5[16:1],,2,,1,{4},4h[4:1]/5<3[16:9],
{8}5,{4},{16}4,4,{4},4h[4:1]/3>5[8:5],
{8}3,{4},{16}4,4,{4},4h[4:1]/7<1[16:9],
{8}7,{4},{16}8,8,{4},8/2-7-4[8:5],
{16}2/6,{8},{16}4,{8},6,,8,,3,
4/5h[8:1],{16}2,4,3,5,{8},4,{16}6,5-8[16:1],,7h[8:1],,5,
,7,7,1,6,2,{8}5h[4:1],3,{16}1,1,,5<1[16:3],{8},{4}1>5[4:1],
5<2b[4:1],{8}2,3,4,{16}5,6,
{8}5,{16}7,8,{8}7,1h[8:1]/6h[8:1],{4},3b/1-7[16:1],
{64}A4f/1-6[16:1],E4,{32}E3,{16},,,{64}A4f/1-5[16:1],E4,{32}E3,{16},,,{64}1/A4f,E4,{32}E3,{16},,,{8}1/5h[8:1],3,
8/4h[8:1],6,5h[8:1]/1-6[16:1]*-4[16:1],3,{4}1,{8}6/4v7[16:1],5/3,
{4}4/2,{8}1/8h[8:1],6,8/1h[8:1],3,1/8h[8:1],5,
1h[8:1]/8>3[16:1],4h[8:3],{4}8<5[16:1],8,2b/4-6[16:1],
{64}A1f/4-7[16:1],E2,{32}E3,{16},,,{64}A1f/4-8[16:1],E2,{32}E3,{16},,,{64}4/A1f,E2,{32}E3,{16},,,{8}4/8h[8:1],2,
1h[8:1]/7-3[16:1],5,{4}7>2[16:1]*<4[16:1],7,{8}5/8h[8:1],4,
3/6h[8:1],2,1/5h[8:1],8,8h[8:1],7h[8:1],5h[8:1],6h[8:1],
3h[8:1],4h[8:1],1h[8:1],8-4[8:1],,8,{4},{16}6b,
4,5,4,7b,4,5,4,8b,4,5,4,1b,4,5,4,
{8}6b,{16}4/6,4/6,,7,5,7,{8}4b/8b,{16}2b/8b,8b/2b-5[8:1],{4},{8}8h[8:1]/A2f,
{16}4,6,{8}1h[8:1],{16}5,3,{8}6-1[16:1]/2-5[16:1],7/3,{4}6/2,
{8}1/8h[8:1],{16}5,6,{8}4,5/4,3/7b,2/6b,{4}1>5[16:1]/5b<1[16:1],
5b/1xV75[32:3],1b>5[32:3]/5b<1[32:3],5b/1bxV75[32:3],1bx/5,
{8}3/4h[8:1],1,5/4h[8:1],7,6h[8:1]/5-8[16:1],4,{4}5,
{16}3,5,,7,{8}5,{16}7,1,{8}7-4[16:1],8,{4}7/2h[4:1],
{16}4,3,{8}5,{16}4,6h[16:3],,3,3,5,2,4,{4}1>5[16:1]/5<1b[16:1],
5b/1V75[32:3],1x>5[32:3]/5<1[32:3],5b/1bV75[32:3],4/1,
{8}3/4h[8:1],1,5/4h[8:1],7,6h[8:1]/5-8[32:3],4,{4}5,
{8}2/7,{16}3,4,{8}1h[8:1],{16}6,5,{8}8v5[16:1]*v3[16:1],6/2,{4}8,
{8}8/2h[8:1],{16}4,3,{8}5,7/4,7b/4,6b/3,{4}5b<8[16:1]/2>5[16:1],
2b/5x-1[32:3],5<8b[32:3],{32}2b/5-1[16:1],3,{16}4,{8},{4}5x,
{8}7/8h[8:1],5,2/1h[8:1],4,8h[8:1]/7-4[16:1],6,{4}7b,
{16}3,4,,4,{8}5,{16}6,4,{8}5/3,2/4,{4}3/1h[4:1],
{16}3,2,{8}4,{16}1,8h[8:1],,6,7,5,6,4,{4}5<8[16:1]/2>5[16:1],
2b/5x-1[16:1],5<8b[32:3],{32}2b/5b-1[32:3],3,{16}4,{8},{4}5,
{8}2/1h[8:1],4,7/8h[8:1],5,1h[8:1]/2-5[16:1],3,{4}2b,
{16}7,5,6,4,8,5,6,4,5/7-4[16:1],7/5h[16:3],{8},7,3,
2/5b,1/6,{16}7,1h[8:1],,4,1,5,1,6,1,7,{8}1h[8:1],
2h[8:1],3h[8:1],5h[8:1],{16}2,2,{8}4h[8:1],{16}2,2,7x-3-5[32:3],1,6,2,
{4}7bV15[16:1],7b,{8}3b/A5f/D6,2b/A6/D7f,1b/A7/D8f,A8/D1f,
1xh[8:1],{16}3,2,4,3,5,2,,3/7,,4/8,,7,4,4,
8,3,6,1,5,3,4,2,6,4,5,2,,8/1h[16:3],{8},{64}8bx/B1,
C,{32}E6,{16},{64}7bx/B2,B3,{32}B4,{16},{64}6bx/A2,A3,{32}A4,{16},{64}8bx/B1,C,{32}E6,{16},{64}7bx/B2,B3,{32}B4,{16},6bx,6bx,1bx,2bx,3bx,4bx,
6,5,6,5,{32}6h[32:5],{8},{32}5,,6,,5,{16},{32},7,,6,,5,,4,,3,,2,
,4h[8:1],{16},{32},5h[8:1],{16},{32},4h[8:1],{16},{32},5,{16},{32},4,{16},{32},5,,4,,5,,4,,5h[32:27],{4},,,{16},{4}C,
{16}4/B8/E8,{8},{16}3/B5/E6,{8},2>6[4:1],,2/8h[4:1],{4},{16}4/B8/E8,
{8},{16}3/B5/E6,{8},2,{16}2/5h[8:3],{8},{16}1,{8},1,
{16}5/B1/E2,{8},{16}6/B4/E4,{8},7<3[4:1],,7/1h[4:1],{4},{16}5/E2/B1,
{8},{16}6/E4/B4,{8},7,8,1,2,3,
{4}1/7-4[16:1],5,{8}1/7-4[16:1],3,{4}5-3-6-2-7-1[32:27],
{1},{4}8/2-5[16:1],
4,{8}8/2-5[16:1],6,{4}4,
{16}4/6,4/6h[16:3],{8},{24}2x,3x,4x,5x,6x,7x,8x,1x,2x,3x,4x,5x,6x,7x,8x,1x,2x,3x,
{8}7/4xh[8:1],{16}6,4,{8}3/5h[8:1],{16}4,6,{8}5/7b,8b/4,{4}1b/3,
{8}1/8h[8:1],{16}6,7,{8}5,7/1,8/4b,5/1b,{4}6<2b[16:1]/2b>6[16:1],
6b/2bx,{8}8/2>6[16:1],1/7,{32}6b/2b,7,8,1,{8},8/2>5[16:1],7/1,
2/8-4[16:1],6,8/1-3[8:1],3-8-4[4:1],1/7-5b[8:1],6,{4}7,
{16}4,4/6,,5,{8}5/3,{16}3,4,{8}2b/5,1b/6,{4}8b/7,
{16}6,5,{8}7/4,{16}8/1,8/1h[8:1],,3,2,4,3,5,{8}4q1[16:1]/6<1[16:1],7/3,
{4}4b/6b,{8}3/5p8[16:1],6/2,{32}3b/5b,2,{16}1,{8},3/6,8/1,
3/6<1[16:1],7,6/4-2[8:1],2-5-1[4:1],4/6-8b[8:1],7,{4}6,
{8}2/7-4[16:1],{16}8,1,{8}7/2>5[16:1],{16}1,8,{8}2-6[16:1]/7-1[16:1],6,{4}7/2,
{8}6/2h[8:1],{16}4,3,{8}5,1/7,1/2b,1b/8,{4}8bp3[16:1]/7b<4[16:1],
8b/7b,{8}2/1q6[16:1],3/8,{32}2b/1b,3,4,5,{8},6/8-4[16:1],7/1,
8/2>5[16:1],1,8-6[8:1],6-1-5b[4:1],1>4[8:1],2,{4}A1f,
{16}5,5/3,,4,{8}4/6,{16}3,4,{8}2/5b,6b/1,{4}7b/8,
{16}6,5,{8}7/4,{16}1/8,1/8h[8:1],,6,7,5,6,4,{8}5p8[16:1]/3>8[16:1],2/6,
{4}5b/3b,{8}6/4q1[16:1],3/7,{32}6b/4b,7,{16}8,{8},6/8-4[16:1],7/1,
8/2>5[16:1],1,8-6[8:1],6-1-5b[4:1],1>4[8:1],2,{4}A1f,
{16}3/6,5,4,5,2,5,4,5,1,5,4,5,{8}2-5[16:1],3,
2/6v1[16:1],7,6/2v5[16:1],3,2/6-1[16:1],7,{16}6/2,{8},{16}3,
4,2,5,1,{8}8/6,6/5,2/1,3/4,7/8,6/5,
2h[8:1],{16}6,4pp1[4:1],{8}5,{16}6,4,{4},{16}8,2,7,3,
{8}6h[4:1],C,{16}3,5,4,5,3,5,4-8[16:1],5,{8}6/3h[8:1],4,
{16}7,1,5,3,4,2,5,1,7,4,,3/5,{8}5/3,4/7,
{16}5,6,4,5,2,2h[8:1],,8-5[8:1],2,7,3,8,{4},{16}5,
2,5,3,7,5,6,4,8-4[16:1],5,7,4,{8}8,{16}3,3,
7x,4,6,3,{8}5x,3/6,{16}4x,6,5,6,3x,7,{8}7h[8:1],
{16}8x,6,1,5,{8}5xh[8:1],{16}1,5,2x,6,3,7,{4}7xh[4:1],
{16}4x,7,5,6,4x,6,{8}6h[8:1],{16}3x,3,7,2,{8}5x,3/5,
{16}4x,5,{8}3/6h[8:1],2x,{16}6,2,{8}5b,{16}5b/4b,5b/4b,,1/7h[8:1],,1,
7x,2,6,3,5x,4,,1,7x,5,6,4,5x,3,6,2,
{8}4x/2,{16}5,3,{8}4x,{16}5,2,6x,3,7,4,8x,{8},{16}7,
3x,6,{8}2h[8:1],{16}5x,3,6,4,7x,3,6,2,{4}5x,
{8}4/5b,7/8b,4/5b,1/2b,5b-8[16:1]/4b-1b[16:1],2/7b,{32}4/5b/E5,C,{16}E1,
