&title=カミイロアワセ
&artist=binaria
&first=0
&des=超高校級の「ノーツデザイナー」 reflectW
&lv_6=12
&inote_6=(150)
{1},
{64},,
{4}4>5[1:3]/3V51[4:5],,,,
{4},,,{64},,,,,,,,,,,,,,,
{4}4>1[64:65],,,,
{64},,,,,,,,,,,,,,,{4},,,
{8}3h[8:6]/5h[8:3],,,,,,,,
{8}46,6,,3h[8:3]/5h[8:2],,{16},,,,,,
{8}6h[8:6]/4h[8:3],,,,,,,,
{8}53,3,,6h[8:3]/4h[8:2],,{16},,,,,,
{8}2h[8:6]/5h[8:3],,,,,,,,
{8}17,7,,2h[8:3]/8h[8:2],,{16},,,,,,
{8}7h[8:6]/4h[8:3],,,,,,,,
{8}82,2,,7h[8:3]/1h[8:2],,{16},,,,,,
{8}5h[8:3],,,3h[8:3],,,5,,
{8}5,4/6h[4:1],,2h[4:1],,{16}5,3,6,,,,
{8}4h[8:3],,,6h[8:3],,,4,,
{8}4,5/3h[4:1],,7h[4:1],,{16}4,6,3,,,,
{8}5h[8:3],,,3h[8:3],,,6,,
{8}6,5/7h[4:1],,4h[4:1],,{16}6,3,5,,,,
{8}4h[8:3],,,6h[8:3],,,3,,
{8}3,4/2h[4:1],,5h[4:1],,{16}3,6,4,,,,
{8}7s3[4:3],,,,,,,,
7s3[4:3],,,,,,,,
7s3[4:3],,,,,,,,
5-1[4:1],,,,2^5[4:1],,5^8[4:1],,
8^3[4:1],,,,6V48[2:1],,,,
2-5[4:1],
,,,1-6[4:1],,,,
2bv5[8:6]*^7[8:6],,,,,,,,
,,,,45,63,2-5[8:1]/7-4[8:1],18,
{16}2b/7bv2[8:1],,,,3,,4,,5^2[8:1],,1v6[8:1],,5,,1-4[8:1],,
,,5-2[8:1],,6,,7,,,,6v1[8:1],,8^3[8:1],,6,,
8-5[8:1],,,,4-7[8:1],,3,,2,,1-4[8:1]*-5[8:1],,28,,1^6[8:1],,
,,1,,,,3,,2,,15,,2,4,3,5,
4-8[8:1],,,,2-5[8:1]/4,,,,2/6V82[4:1],,,,6,,3V17[8:2],,
,,3,,,,6,,,,7,,3,,6,,
4,,3,3,5-2[8:1],,6,,4-1[8:1],,3,,8-3[8:1],,7,,
,,5,,24,,,,36,,4,5,4,5,4,,
1b/5b,,,3b/7b,,,1bv4[8:1]/5bv8[8:1],,,,,,,,3V17[4:1]/7,,
,,7V13[4:1],,,,5V71[4:1],,,,5V31[4:1],,,,5,,
8h[4:1],,,,1-6[8:1],,2,,8-5[8:1],,7,,4-7[8:1],,3,,
,,8w4[8:1],,8,,,,,,17,,2,4,3,5,
4h[4:1],,,,6h[4:1],,,,1h[4:1],,8,,7,,2<5[8:3]*pp4[8:2],,
,,2,,,,,,,,28,,7,5,6,4,
5h[4:1],,,,3h[4:1],,,,8h[4:1],,1,,2,,7>4[8:3]*qq5[8:2],,
,,7,,,,,,6,,7,,8,,3,,
4,5,4,,6,3,6,,2,7,2,,8,1,8,,
3,4,3,,5,2,5,,1,6,1,,7,8,7,,
2,1,2,,8,3,8,,4,7,4,,6,5,6,,
1,8,1,,7,2,7,,3,6,3,,5,4,5,,
4,5,3,,5,4,6,,3,5,4,,6,4,5,,
3,4,2,,6,5,7,,2,4,3,,7,5,6,,
3,4,3,4,2,5,2,5,3,6,3,6,4,7,4,7,
3,8,3,8,2,7,2,7,{32}1,2,3,4,5,6,7,8,1,2,3,4,5,6,7,8,
{16}1-5[8:1],,,,7-1[8:1],,7,,,,,,3qq4[8:3]/5pp4[8:3],,,,35,,,,,,,,,,45,,36,4,5,6V84[4:7]/3V15[4:7],
