&title=弱虫モンブラン (Reloaded)
&artist=DECO*27
&first=0
&des=DLHN SUPER BRO FUMEN TEAM
&lv_5=13
&inote_5=(124)
{8}8-5[8:1],8,{4}8,{8}1-4[8:1],1,{4}1,
{8}5<8[8:1],5,{4}5,{8}4>1[8:1],4,{4}4,
{8}7/8-4[8:1],7,{4}7,{8}2/1-5[8:1],2,{4}2,
6-3[4:1],6/3<6[4:1],{2},{8}1-6[8:1],
2,{4}3,{8}4-7[8:1],3,{4}2,
{8}8-3[8:1],7,{4}6,{8}5-2[8:1],6,{4}7,
{8}1<6[8:1],2h[8:1],{4}1,{8}5>2[8:1],6h[8:1],{4}5,
1-6[4:1],6>3[4:1],{2}3-8[8:1],
{8}7h[4:1]/1>4[8:1],1,{4}1,{8}2h[4:1]/8<5[8:1],8,{4}8,
{8}3h[4:1]/7-2[8:1],7,{4}7,{8}7h[4:1]/3<6[8:1],3,{4}3,
{8}8-5[8:1]/1-4[8:1],7/2,{4}8/1,{8}5<8[8:1]/4>1[8:1],6/3,{4}5/4,
{8}7/2,1,8,7,2,1,8,A7,
5pp5[8:1]*qq5[8:1],B6/E7/B4/E4,{4}5,{8}4pp4[8:1]*qq4[8:1],E6/B5/B3/E3,{4}4,
8-6[8:1]/1-6[8:1],8-3[8:1]/1-3[8:1],8-4[8:1]/1-5[8:1],1/8,
{8}1v3[8:1]*>3[8:1],B2,{4}1,{8}1v4[8:1]*>4[8:1],B2/B3,{4}1,
{2}1>5[8:1]*-5[8:1],1v6[8:1]*>6[8:1],
{8}8V64[8:1],E2,{4}E3,{8}1V35[8:1],E8,{4}E7,
8-5[8:1]/2-5[8:1],8-4[8:1]/2-6[8:1],8/2,3/7,
{8}7V51[8:1],6,{4}5,{8}2V48[8:1],3,{4}4,
7q3[8:1]/1p5[8:1],1>3[8:1]/7<5[8:1],{2}7z3[4:1]/1s5[4:1],
{4},1,
,2,
,3,,4,
,5h[4:1],,6h[4:1],
,8/7,1/2,6/5,
3/4,{8}7b<4[8:1],2-6[8:1],7V15[4:1],2,7,2,
{4}2<7[8:1],2/6,{8}2-7[8:1],6-3[8:1],2>5[8:1],6<1[8:1],
2-6[8:1],6,{4}2,{8}7-2[8:1],3-6[8:1],7<4[8:1],3>8[8:1],
7-3[8:1],3,{4}7<4[8:1],7/1-5[8:1],{8}1/8-4[8:1],8,
2,2,2b>5[8:1],7-3[8:1],2V84[4:1],7,2,7,
{4}6-2[8:1],6/4,{8}7>2[8:1],3<6[8:1],7-3-7[4:1],3,
{4}7-1-3-5[4:1],2h[4:1],{8},1>4[8:1],5<8[8:1],1-5[8:1],
5,1,{4}7<4[8:1],7/2-6[16:1],2/8h[2:1]/Cf,
,B3/B4/Cfh[2:1],,6h[2:1],
,4h[1:1],{8},,8bh,8bh,
,,{4}7p5[2:1],,2h[4:1],
,6/2pp5[2:1],{8},,8bh,8bh,
,,{4}8h[8:1]/7h[8:1],,3h[8:1]/4h[8:1],
,1h[8:1]/2h[8:1],,6h[8:1]/5h[8:1],
{8},,8,{16}3,4,,,,,{8}1,{16}6,5,
,,,,{8}7,{16}4,5,,,,,{8}5,{16}3,4,
{8}2b,2bh[8:1],8,8<5[8:1],,,4,4>1[8:1],
,,7,7-2[8:1],,,3,3-6[8:1],
,,8,{16}5,6,,,{8}1,1,{16}4,3,
,,,,{8}7,{16}4,5,,,{8}2,2,{16}8,1,
7,2,6,3,
{2}5x/2x-6[8:10],B1,B8,B7,7b-3b[8:10],B8,B1,
{8}B2,,
{16}1,8,1,8,
{8}2h[4:1],1,8h[4:1],7,6q5[8:1],5>6[8:3],6,,8h[2:1],,,5,4-1[8:1],7-3[8:1],
{8}4,7,8>3[4:1],,,4,5-2[8:1],6-1[8:1],5,6,4>7[4:1],,7q8[4:1]*<8[4:1],
{8},,,,,7-4[8:1],4V61[8:1],7,3,2-5[8:1],5V38[8:1],2,6,7w3[8:1],,7,,
{8}1/5,2/6,3p7[8:1]/7p3[8:1],4/8,7>2[8:1]/3<6[8:1],,3/7,,8-4[8:1],4V68[8:1],8,3,
{8}2-6[4:1],,6-3[4:1],,3-8[4:1],,8>6[2:1],,7,,6-2[4:1],,8,,1,,
{8}2-6[2:1],,3,,4,,5,,6<1[8:1],,1,,3>8[8:1],,8,,7-4[8:1],,4,,2-5[8:1],,5,
{16}6,6,
{8}7-4[8:1],8,7/3-7[8:1],2,3/6-2[8:1],5,6/3-1[8:1],4,3/7p3[8:1],8,7/2q6[8:1],1,
{8}2/8-4[8:1],7,8/3-8[8:1],2,
{8}7,,6/5,5/4,4b/3b,,2b/1b,,
{8}8p4[8:1],4V68[8:1]/6,8/2-6[8:1],1-5[8:1],2>5[8:1],1,2b,,
{1}7hx[2:3]/6xp2[2:3],,3q8<7-2b[2:3],,
{4}3<6p1[2:1]/7h[4:1],,E8,E7,2h[4:1]/6>3V58[2:1],,A1,A2,3h[4:1]/7h[4:1],,2h[4:1]/6h[4:1],,5h[4:1]/2,3,4>1[1:1]/5,,6h[1024:1],,7h[1024:1],,8-5b[16:1],,
{8}1-6[8:1],6<1>4[4:1],1>4b[8:1],5,6pp1[2:1],6,4x,,4h[4:1],,,3,
{8}2-6[16:1]/8,1,2/8<4[4:1],1,8h[4:1],,,1,2/4,3,7/5,6,4>2[8:1]/5-2[8:1],,4q5[4:1]/5<4[4:1],,4/5,,,,
{8}4-7[8:1],7<4[8:1],4-1[8:1],1>4[8:1],8-4[8:1],8,8<4[8:1]*<3[24:4]*<2[24:5]*<1[4:1],,5h[4:1],,,6,7-4[16:1],1-5[16:1],7,1,8-4-8[8:1],,4,3,2-5[8:1],5-1[8:1],2,6,7<4[4:1],,4>1[4:1],,1,,5,3,
{8}1-5[8:1]/7,3/5-2[8:1],1/7,6V84[4:1],7,6/1,2-5[8:1],3,2/5,6-1[8:1],1-5[8:1]/7,3/6,4-8[8:1],3,2V46[4:1]/4,1,2/6-2[8:1],7,8-4[8:1],7,1/8,2-8[8:1],3/5,2-4[8:1]/6,5,7V53[4:1]/2,8,3-7[8:1]/7,2-5[8:1],1-6[8:1],2,1,4-2[8:1],2V84[4:1]/5,4/7,6-1[8:1],5,6,5pp8[4:1],4,3/5,2V41[4:1],3,1-5[8:1]/2,8,6-4[8:1],7,3/6-1[8:1],1-7[8:1],2/6,4-1[8:1],3,4-7[8:1]/6,5,4w8[8:1]/2,3,4>1[8:1]*<7[8:1],,4,
{32},,8,8,
{16}8,,1/7,,2,6,3,5,
{4}4>5[1:1]*q5[1:1],,,,,
{8},4,4h[2:1],,,,5<4[1:1]*p4[1:1],,
{1},
{8},,2/7,4/5,1/8,3/6,
{4}3/7-4[8:1],1/7,6/2-5[8:1],8/2,2/6-1[8:1],4/6,7/3-8[8:1],5/3,1>4[8:1]/4<7[8:1],1-6[8:1]/4-1[8:1],,2/7,8<5[8:1]/5>2[8:1],8-3[8:1]/5-8[8:1],,7/2,
{8}3/4,2,5/6,7,1/2,3,7/8,6,3/4,1/2,7/8,5/6,2/4,1/8,5/7,4/5,
{16}2,1,3,8,4,7,5,6,8,7,1,6,2,5,3,4,1/5,2,3,4,5/1,6,7,8,1/5,6,7,8,1/5,2,3,4,
{1}5bz1[2:3]/1bs5[2:3],,
{8}6,6h[2:1],,,5,5h[2:1],,,4,4h[2:1],,,3,3h[2:1],,,6,6h[4:1],,,5,5h[4:1],,,4,4h[4:1],,,3,3h[4:1],,,6,6,,,5,5,,,4,4,,,3,3/Cf,
E
