&title=Fallen Symphony (Cut Ver.)
&artist=Ludicin
&first=6.82
&des=speckles
&lv_5=15
&inote_5={4}(250)5/4,{8},{16}5,4,{4}5,6,
{8}4/6,{4},{16}6,5,{4}6,4,
{8}1/2,{4},{16}2,1,{4}2,1,
{8}8/1,{4},{8}8,{4}1,2/8,
{8}6/5,{4},{16}5,4,{4}5,4,
{8}3/4,{4},{16}4,5,{4}4,3,
{8}8/7,{4},{16}8,7,{4}8,7,
{8}6/5,{4},{8}5,{4}1,6,
{8}4/3,{4},{8}4,{4}7,3,
{8}3/5,{4},{8}6,{4}2,5,
{8}3/6,{4},{8}7,{4}2,5,
{8}4/5,{4},{8}2,8,3,{4}6,
{8}5,4,5,4,5,4,5,3,
5,3,5,3,5,3,5,3,
6,3,6,3,6,3,6,3,
6,1,8,1,8,1,8,1,
{4}8h[8:1]/2h[8:1],8h[8:1]/2h[8:1],{8}7/4h[8:1],7,{4}7h[8:1]/4h[8:1],
{8}5/3h[8:1],6,{4}4h[8:1]/6h[8:1],{8}6/4h[8:1],6,3h[8:1],{16}8,7,
{4}6h[8:1]/4h[8:1],3h[8:1]/1h[8:1],{8}1/3h[8:1],1,{4}2h[8:1]/4h[8:1],
1h[8:1]/8h[8:1],{8}1/8h[8:1],1,2h[8:1],{16}7,6,{4}5h[8:1]/1h[8:1],
{8}6/2h[8:1],7,{4}3h[8:1]/7h[8:1],{8}4/8h[8:1],4,{4}5h[8:1]/1h[8:1],
{8}7/2h[8:1],6,{4}3h[8:1]/7h[8:1],{8}8/4h[8:1],8,7/5h[8:1],{16}6,7,
{4}5h[4:1]/8h[8:1],{16}7h[8:1],4,3,2,{4}7h[8:1]/1h[8:1],6h[8:1]/3h[8:1],
1h[4:1]/6h[8:1],{16}7h[8:1],2,3,4,{4}5/7h[8:1],1b/2b,
{16}5,6,5,6,5,4,3,2,1,8,1,8,1,8,7,6,
5/1,2,3,4,1,2,3,4,5,4,5,4,5,6,7,8,
5,6,7,8,1,2,3,4,5,4,5,4,3,2,1,8,
3,2,{8}1,{16}8,7,6,5,4,3,4,3,4,5,6,7,
8-5[8:1],7,8,7,{4}8,{16}1-5[8:1],2,1,2,{4}1,
{16}8<6[8:1],1,8,1,8,1,2,3,4,5,6,7,8/4,1/5,2/6,3/7,
{1}8bh[4:3]/4bh[4:3],
{4}1/3,{16}1,1,1,1,1,1,1,1,1-5[8:1],1,1,1,
1/2,B3,{8}A4,,{16}6,5,6,5,{8}6,8-5[8:1],5,
8/3,4,3,{16}4,5,4,5,{8}4,2v5[8:1],6,
8/2,6,,{16}8,7,8,7,{8}8-5[8:1],,8/3-8[8:1],
,3/6-2[8:1],,8/6>3[8:1],,8/6<1[8:1],,6/4h[8:1],
,4h[8:1],,{16}5,2,5,2,{8}5,3-7[8:1],5,
3/6,6,1,{16}2,1,2,1,{8}2,5v8[8:1],7,
5/3,2,2,{16}4,8,4,8,{8}4,{4}8-4[8:1]/1-3[8:1],
1/8<5[8:1],2-5[8:1]/8v5[8:1],8/2-6[8:1],2,
{16}8/1,7,6,5,4,3,2,1,4,3,4,3,{8}4,{16}2b/6,3,
4,5,6,7,8,3,4,5,6,2,1,2,1b,2,3,8,
7,6,5,4,3,7,6/1,5,4,8,7,6,5b,4,2,3,
2,3,2,8,7,6,1/5,4,3,2,1,8,5,6,7,8,
1,8,3,8,3,8,1,8,2,7,1,7,3,7,2,7,
4,8,4,6,2,7,2,8,1,2,1,6,3,5,3,6,
4,7,{8}4,{16}3,6,3,5,4,6,4,5,3,6,4,5,
4,6,3,4,3,5,2,4,2,6,2,5,8-4[8:1],2,8,1,
{8}8b,{4},{16}5/1,6/2,7/3,8/4,{8}5/1,{4}6-3[8:1]/2-7[8:1],
{8}6/2,{4},{16}8/4,7/3,6/2,5/1,{8}4/8,{4}7-3[8:1]/5-1[8:1],
{16}7/5,{4},{8},{16}3,2,5/1,8/4,3/7,{4}6-1[8:1]/2-5[8:1],
6-3[8:1]/2-7[8:1],2>5[8:1]/6<1[8:1],2-5[8:1]/6-1[8:1],6/2,
{8},7b/8b,,{16}4/7,3/6,2/5,1/4,{8}3/8,{4}2>5[8:1]/6<1[8:1],
{8}6/2,{4},{16}8/5,7/4,3/6,2/5,{8}1/4,{4}8-3[8:1]/7v4[8:1],
8/7,{16}2/5,3/6,4/7,5/8,6/1,7,8,1,2,3,4,5,
6,5,8,5,8,5,6,5,7,4,6,4,8,4,7,4,
4/3,2,1,8,7,6,5/8,1,8,1,8,1,6b,5,4,3,
2,1,2,1,2,3,4,5,4,5,4,6,2b,1,8,7,
6,7,6,7,8,1,2,1,2,1,8,7,6b,5,6,5,
6,7,8,1,5/2,6,7,8,1,2,8,3,7,2,{8}8,
4/6h[8:1],4h[16:1],6/3h[8:1],5,{16}3h[8:3]/5h[8:1],{8},{16}6,{8}5h[16:1],6h[16:1],
3/8h[2:1],3h[8:1],{16},2,{8}3h[8:1],,7/4h[8:3],7h[16:1],6,
6h[8:1],3,8/3h[8:1],5/8h[8:1],2,6/2h[8:1],4,7/5h[8:1],
,5h[16:1]/6h[16:1],6h[16:1]/7h[16:1],4h[16:1]/5h[16:1],5h[16:1]/6h[16:1],2h[16:1]/3h[16:1],7h[16:1]/6h[16:1],4h[16:1]/3h[16:1],
6/5,{4},{16}4/8,7/3,6/2,1/5,{8}4/8,{4}4-8[8:1]/8-4[8:1],
{8}4/8,{4},{16}1/5,2/6,7/3,8/4,{8}1/5,{4}6>3[8:1]/2<7[8:1],
{8}2/6,{4},{16}7/3,8/4,5/1,2/6,{8}3/7,{4}4>1[8:1]/8<5[8:1],
4-7[8:1]/8-3[8:1],4-1[8:1]/8-5[8:1],,4/8,
{8}2b/6b,{4},{16}4/7,6/3,5/2,1/4,{8}8/3,{4}7<4[8:1]/4>1[8:1],
{8}7/4,{4},{16}2/5,3/6,7/4,8/5,{8}6/1,{4}7>2[8:1]/2>5[8:1],
{8}7/2,{4},{16}4/5,3/6,2/7,1/8,{8},{4}2<7[8:1]/7<4[8:1],
7/2,{8}3/8,7/4,{4}6>3[8:1]/5<8[8:1],6/5,
{16}1/2,3,4,5,6,7,8/5,4,5,4,5,4,7b,8,1,2,
3,4,3,4,3,2,1,8,1,8,1,7,3b,4,5,6,
7,6,7,6,5,4,3,4,3,4,5,6,7b,8,7,8,
7,6,5,4,8/3,7,6,5,4,3,5,2,6,3,5,4,
3b/7b,5,7,5,7,4,8,2,8,5,7,4,7,5,7,2,
1,8,1,6,1,5,2,8,2,8,1,5,1,6,1,7,
8,2,8,5,7,1,7,3,7,2,8,5,8,1,8,2,
3,5,3,8,2,4,1,6,2,5,3,8,3,6,3,4,
{8}3/5b,4>1[16:3],,{16}8/A4,7/A3,6/A2,5/A1,{8},4/6,4h[8:1]/6h[8:1],
,5<8[16:3],,{16}1/A5,2/A6,3/A7,4/A8,{8},7/6,6h[8:1]/7h[8:1],
,3<6[16:3],,{16}2/A3,1/A4,8/A5,7/A6,{8},{4}4-8[8:1]/1-5[8:1],
4-2[8:1]/1-3[8:1],4<8[2:1]/1>6[2:1],{8}1/4,A5/A2,A6/A3,A7/A4,
A8/A5,7v4[16:3],,{16}8/A7,1/C,2/B4,3/A4,{8},6/8,6h[8:1]/8h[8:1],
,1-4[16:3],,{16}8/A1,7/B2,6/B3,5/A4,{8},8/7,8h[8:1]/7h[8:1],
,6q3[16:3],,{16}7/A6,8/B7,1/B2,2/A3,{8},6,4/6h[8:1],
4h[8:1],8,5/8h[8:1],5,3/5h[8:1],3,{16}7,6,{8}5,
{16}2b,6,2,6,2,5,1,7,1,5,{8}1,{16}2,6,2,6,
2,5,2,6,4,7,4,8,4,6,4,8,4/5x,6,{8}7,
{16}7,5,7,1,7,4,6,5,6,3,6,5,7,1,7,5,
7,4,7,1,8,5,8,4,8,1,7,5,7,4,{8}6,
1/7h[8:1],1h[16:1],7/2h[8:1],8,{16}2h[8:3]/8h[8:1],{8},{16}7,{8}8h[16:1],7h[16:1],
2/5h[2:1],2h[8:1],{16},3,{8}2h[8:1],,6/1h[8:3],6h[16:1],7,
7h[8:1],2,5/2h[8:1],5h[8:1],3,7/3h[8:1],1,6/8h[8:1],
,8h[16:1]/7h[16:1],7h[16:1]/6h[16:1],1h[16:1]/8h[16:1],8h[16:1]/7h[16:1],3h[16:1]/2h[16:1],6h[16:1]/7h[16:1],1h[16:1]/2h[16:1],
7/8,{4},{16}6,5,{4}6,6,
{8}4b/5b,{4},{16}7,8,{4}7,6,
{8}7b/8b,{4},{16}4,3,{4}4,5,
{8}3b/4b,{4},{16}8,1,{8}8,{16}3,4,5,8,7,6,
{8}5/3,5h[8:1]/3h[4:1],,8,{4}6h[4:1]/1h[8:1],{8}8,3/8h[8:1],
5,5h[8:1]/2h[4:1],,{16}5,4,{8}3/6h[4:1],4,2/4h[8:1],5/7h[8:1],
{16}1h[8:1],6,5h[8:1],2,3h[8:1],6,7h[8:1],4,5h[8:1],8,1h[8:1],4,3h[8:1],8,{8}7h[8:1],
4/3,2/1,3/4,5/6,{4}4/3,{8}6b,6b,
4,{16}4,6,4,7,4,6,4,7,4,6,4,5,{32}4,6x,7x,8x,
{16}4,5,4,6,4,5,4,8,{32}4,7x,6x,5x,{16}4,8,{32}4,7,{16},4,6,
5x,4,5,3,5,4,5,3,5,1,{32}5,4x,3x,2x,{16}5,1,5,3,
5,2,5,4,5,3,5,2,5,1,{8}5,{32}5,6,7,8,1,2,3,4,
{8}5,5,5/1b,4,4,4,1b/4,5,
5,5,1b/5,6,6,6,{4}1b/6,
{8}4/7,3,8/7,7,7/4,6,7/5,4,
{16}3h[8:1]/5h[8:1],{8},{16}6/4h[8:1],,6,{8}5h[8:1]/7h[8:1],,{16}7,6,5,4,3,2,
1,8,1,7,1,6,1,7,1,6,1,7,1,8,{32}1,7x,6x,5x,
{16}1,8,1,7,1,8,1,5,{32}1,6x,7x,8x,{16}1,5,{32}1,6,{16},1,7,
8x,1,8,2,8,1,8,2,8,4,{32}8,1x,2x,3x,{16}8,4,8,2,
8,3,8,1,8,2,8,3,8,4,{8}8,{32}8,7,6,5,4,3,2,1,
{8}8,6/5,3b,{16}7/2,6,{8}5,7/8,3b,{16}6/5,7,
{8}8,5/6,3b,{16}2/1,3,{8}4,7/8,3b,6/2,
{4}5b/7,{16}5,5,5,5,{8}5,4/6,{16}4/5,6,7,8,
{8}1/2,3/5,,{16}3/5x,4x,3,4,2,4,1,4,2,4,
{4}5b,{16}5,5,5,5,{8}5,{16}4,6,4,6,4,6,
{8}4/5x,3/6,3/6,{16}6/5,4,3,2,1/6,5,4,3,{8}2/6,
{4}5b/7,{16}8,8,{8}8,{16}5/6,4,3,2,5,6,7,8,
6/1,{8},{16}2/6,5,4,{8}3/2,{16}6,5,6,5,{32}6,5,4,3,2,1,8,7,
{8}6/4-2[8:1],4,4/8-6[8:1],8,8/1-5[8:1],1,{4}1,
{8}8b/7b,4/6,{16},4/6,{8},{4}4/6,{16}5,4,5,4,
{4}5b,{16}8/1,7,{8}6-1[8:1],{16},5,{8}6,,{16}2/8,3/7,
{4}4/6,{16}8/4,1/5,{8}6-2[8:1]/2-5[8:1],,2/6,{4},{16}2,
3,{8}4-1[8:1],{16},5,{8}4,,{16}1/5,6/2,{4}7/3,
{16}3/7,2/6,{8}1-5[8:1]/5-8[8:1],,1/5,{4},{32}4/Ch[8:1],3,2,1,{8}8,
{16}6,5,4,3,2/6,5,6,5,6,7,8,1,2/5,6,5,6,
5,4,3,2,1/7,8,7,8,7,6,5/C,4,3,2,{32}1,2x,3x,4x,
{16}5x,6,5,6,2,3,4,5,6,5,6,5,2,3,4,5,
{8}6/7,5/6,4/5,{16}5/6,7,{8}8/1,2/3,{32}4/5,3,2,1,8,7,6,5,
{16}4/8,1,{8}2-5[8:1],{16},3,{8}2,,{16}8/3,7/2,{4}6/1,
{16}4/3,5/2,{8}6/1,,7<4[8:1]/3>8[8:1],,7/3,{4},{16}8,
7,{8}6v8[8:1],{16},5,{8}6,,{16}1/6,2/5,{4}3/4,
{16}1,8,7,6,5/C,4,3,2,1,8,7,6,5/C,6,7,8,
{32}1b,2x/8x,3x/7x,6x/4x,{16}5,4,6,7,4,3,7,8,2,1,8,1,7,2,
6,4,6,3,8,4,7,5,6,5,6,5,{8}6,{32}2,1x/3x,8x/4x,7x/5x,
{8}6b,6,{16}6/3,4,5,6,7/3,2,1,8,7/4,5,6,7,
{8}8/3,3/7,{16}6/3,5,3/4,2,1,8,{8}7,{32}1b,2,3,4,5,6,7,8,
{4}1,{16}4,5,4,6,4,5,4,6,4,5,4,6,
3,6,{8}3,{16}4,5,4,6,4,5,{32}4,7x,6x,5x,{8}4,4,
{16}5,3,5,2,5,4,5,3,5,4,6,3,6,4,5,3,
5,4,5,3,6,4,6,2,5,4,5,3,{4}5/2x,
{16}5b,2,{8}1-6[8:1],{16},8,{8}1,{16},3,{8}4-7[8:1],{16},5,{8}4,
{16}3,2,{8}1-4[8:1],{16},8,{8}6b/1,{4},{32}5,4,3,2,1,5,6,7,
{8}8,8,7/4,7,6,6,4/5,5,
4/6,4/6,3/5,4/6,5/7,4/6,{32}1,2,3,4,5,6,7,8,
{8}1b,{16}8,5,8,2,8,5,7,4,7,5,7,2,8,6,
8,4,8,5,8,2,7,5,7,4,7,5,7,8,{8}7,
{16}2,5,2,4,2,7,1,5,1,4,1,5,1,7,{8}2,
2,2,{16}2,7,1,5,1,4,1,5,1,4,{8}2,
{16}5,6,5,6,5,6,5,6,3,6,5,6,5,6,,6,
8,4,5,4,5,4,5,4,6,4,5,4,5,4,,{32}4,3,
{16}2/6,7,{8}8-3[8:1],{16},1,{8}8,{16},5,{8}4-8[8:1],{16},5,{8}4,
,4/5,3/4,2/3,1/2,{32}8/1,7,6,5,{4}4/2b,
{16}3,4,5,6,{8},{16}2,1,8,7,{8},{16}4,3,2,1,
5,6,7,8,2,3,4,5,2,3,4,5,{4}6/2,
{16}6,7,8,1,4,3,2,1,6,7,8,1,6,7,8,1,
5,4,3,2,7,6,5,4,8,7,6,5,2,1,8,7,
6/4,3,6/2,1,6/8,1,6/2,3,6/4,5,6/4,3,6/2,1,6/8,1,
6/2,3,6/4,5,6/4,3,6/2,1,6/8,1,6/2,3,{8}6/4,6,
{16}5,4,5,3,5,1,8,7,8,3,5,3,1,2,1,5,
6,5,3,2,3,6,5,6,4,3,4,3,{32}1w5[8:1],8,7,6,5,4,3,2,
{16}1b,C/B4/B5/B6/E2/E1/B8/B2/B1/B7/B3,{8}5bxh[8:55]/6bxh[8:55]/4bxh[8:55]/E6/E5/A5/A4/A6,
