&title=Paradise
&artist=Sound Souler
&first=0.06999999
&des=
&des_5=LilSeven
&lv_5=14
&inote_5=(126){4},{8},,,,,,5,
3h[8:1],{16},4-6[8:1],,3,,,{8}3,{16},,6,6,
{8}4,5h[8:1],{16},4-2[8:1],,6,,,{8}6,{16},,2,2,
{8}5,3h[8:1],{16},6-8[8:1],,5,,,{8}4,{16},,2,2,
{8}6,3h[8:1],{16},5pp6[16:5],,4,,,{8}4,,,4b,
5,{16},4-6[8:1],,3,,4,{8}3,{4}4,
{8}5,4,{16},4-2[8:1],,6,,4,{8}6,5,{16}3,3,
{8}5,4,{16},6-8[8:1],,4,,6,{8}4,3,{16}6,6,
{8}1-3[8:1],4,{16}1,5,,6,,4,,4,,6,{8}6,
4p2[4:1],{16}6,4,,5,,,,,2,4,1,5,{8}8h[4:1],
7-5[8:1]*-1[8:1],7,,,2,3,4,5,
6q3[16:3],6,,2q7[16:3],{4}2,{8}8>3[8:1],8,
6,{16}6,5,,5,{8}4,{16}2,4,{8}2,3,4,
5q7[4:1],3,{16}5,4,,2,,,7,5,8,4,{8}1h[4:1],
2-8[8:1]*-4[8:1],2,,,7,6,5,4,
2-4[12:1],2,{16}8,7,,5h[8:1],,,7,6,,4h[8:1],,,6,
5,,3h[8:1],,,5,4,,2h[8:1],,,7,5,7,5,
{8}6b,{16}6h[16:1],5,,7h[16:1],{8}8,7-4[8:1],3-7[8:1],7,3,
4b,{16}2h[16:1],1,,3h[16:1],4,4,{8}2v5[8:1],6-1[8:1],2,6,
4b,{16}5h[16:1],3,,4h[16:1],{8}2,1v4[8:1],6-1[8:1],1,6,
2b,{16}2h[16:1],4,,3h[16:1],5,5,{8}3bv8[8:1],8bq4[8:1],{16}5,6,{8}7,
8b,{16}6h[16:1],4,,7h[16:1],{8}1,8-4[8:1],5-2[8:1],8,5,
6b,{16}7h[16:1],5,,8h[16:1],2,2,{8}8-6[12:1],4-2[12:1],8-4[8:1],4,
8b,{16}1,2,3,5,6,7,3,4,2,7,3,4,2,8,
{8}2h[16:3],{32}4,5,6,7,{8}3h[16:3],{32}5,6,7,8,{8}4h[16:3],{32}6,7,8,1,{16}3,3,{8}3,
{12}4/5,{24}4,3,,4,{12}5,{24}4,3,,4,{12}5,{24}4,2,,4,{12}6,{24}4,2,{48},,,,{16}4,
8,4,1,4,2,4,3,4,5,4,6,4,7,4,8,
{24}5,1,5,1,5,1,4b,3,2,8b,7,6,1,5,1,5,1,5,2b,3,4,6b,7,8,
2,5,3,6,4,7,1,6,2,7,3,8,{16}2h[32:1],5h[32:1],4h[32:1],7h[32:1],{24}1,8,2,7,3,6,
{12}4/5,{24}4,3,,4,{12}5,{24}4,3,,4,{12}5,{24}4,2,,4,{12}6,{24}4,2,,4,
{8}6,{24}3,4,3,{8}4,{24}7,6,7,{8}6,{24}2,3,2,{8}3,8,
{24}8/3b,1,2,3,4,5,6/7b,8,1,2,3,4,{12}5b,{24}5,7,,7,{12}1s5[16:3],{24}1,3,,3,
{4}4z8[16:3],4/6p3[8:3],{8}2<7[8:1],3,{4}2,
{8}4p2[4:1],{16}2,3,,5h[8:1],,,{8}6,6,4,6h[4:1],
7v1[8:1]*qq5[8:1],7,,,2,3,4,5,
{12}6,{24}6,4,,4,{12}5,{24}5,3,,3,{12}7,{24}7,5,,5,{12}4,{24}4,2,,2,
{8}8-6[8:1],8,4-2[8:1],4,7-5[8:1],7,3-1[8:1],3,
4<7[8:1],{16}4h[16:1],8,,,{8}3b,5>2[8:1],{16}5h[16:1],1,,,{8}6b,
4-7[8:1],{16}4h[16:1],1,,,{8}3b,5-2[8:1],{16}5h[16:1],8,,7,6,5s1[16:9],
{1}4z8[2:1],
{8}4/8h[8:1],3,7/2h[8:1],6,1/5h[8:1],8,4/7h[8:1],3,
6/2h[8:1],{16}7,7,3h[8:1],8,,,{8}7/4h[8:1],6,4/5h[8:1],3,
2/6h[8:1],{16}3,3,7h[8:1],4,,,{8}2/8h[8:1],1,7/1h[8:1],6,
4/2h[8:1],{16}4,5,{8}6/3h[8:1],{16}5,6,{8}7/4h[8:1],3,2/5h[8:1],1,
2/6h[8:1],{16}3,3,7h[8:1],4,,,8h[8:1],2,{8}2,1h[8:1],7,
7/1bv4[8:1],2,1/3-7[8:1],2,3/1bv4[8:1],2,1/3-7[8:1],2,
3/1bv4[8:1],2,1/3-7[8:1],2,{4}3/1bw5[8:1],1,
{8}3/7h[8:1],2,6/1h[8:1],5,8/4h[8:1],7,3/6h[8:1],2,
{12}5b,{24}3h[24:1],4,,2h[24:1],{8}1,{24}4b,,6h[24:1],{12}5,{24}7h[24:1],8,,4,{4}5,
{8}4b,5,{16}4,4-6[8:1],,3,,4,{8}3,4,{16}5,4,
{8}6,4,{16}5,4-2[8:1],,6,,4,{8}6,5,{16}3,3,
{8}5,4,{16}3,6-8[8:1],,4,,6,{8}4,3,{16}6,6,
{8}2,5,{16}5,1-3[8:1],,6,,1,{8}4,5,6,
4b,5,{16}4,4q7[16:5],,3,,4,1,2,3,4,{8}5h[4:1],
6qq4[8:1]*-8[8:1],6,,,2,3,4,5,
6pp1[2:1],6,{16}5,5,,4,{4}4,{8}3,2,
1b/5h[8:1],2,6b/3h[8:1],7,4b/8h[8:1],5,1b/6h[8:1],2,
4p2[4:1],{16}5,4,,7h[8:1],,,{8}6,5,4,3h[4:1],
2v8[8:1]*pp4[8:1],2,,,7,6,5,4,
{12}3,{24}3,5,,5,{12}4,{24}4,6,,6,{12}2,{24}2,4,,4,{12}5,{24}5,7,,7,
{8}1>4[8:1],1,5<8[8:1],5,2>5[8:1],2,6<1[8:1],6,
5p2[4:1],{16}4,4,,2h[8:1],,,{8}3,4,5,6h[4:1],
7v1[8:1]*qq5[8:1],7,,,2,3,4,{16}5,3qq4[16:9],
{1}6pp5[2:1],
{12}5b,{24}3h[24:1],4,,2h[24:1],{8}1,{24}4b,,6h[24:1],{12}5,{24}7h[24:1],8,,4,{4}5,
{8}5,3h[8:1],{16},4-6[8:1],,3,,,{8}3,,6,
4,5h[8:1],{16},4-2[8:1],,6,,,{8}6,,2,
5,3h[8:1],{16},6-8[8:1],,5,,,{8}4,,2,
6,3h[8:1],{16},5pp6[16:5],,4,,,{8}4,,,{4}5/1-4[2:1],
6,7,8,
4/8-5[2:1],3,2,1,
2h[4:3],4,5,6,
{8}7/5,7/5,6/4,6/4,{32}5,4,3,2,1,8,7,6,4,3,2,1,8,7,6,5,
{1}1bqq6[4:7]/4qq1[4:7],
E
