&title=雨上がりの空に
&artist=猫大樹
&first=0
&des=woxxow
&lv_5=13
&inote_5=(160)
{1},
{8}4/5h[8:1],,5h[8:1],,5h[8:1],,5h[8:1],,
{8}3h[8:1],,3h[8:1],,3h[8:1],,3,4,
{8}6h[8:1],,5h[8:1],,6h[8:1],,4h[8:1],,
{8}4/2h[8:1],,1h[8:1],,8h[8:1],,7h[8:1],,
{8}5-8[2:1]/4h[8:1],,4h[8:1],,4h[8:1],,4h[8:1],,
{8}5>1[2:1]/6h[8:1],,6h[8:1],,6h[8:1],,6,6,
{8}5V71[2:1]/3h[8:1],,4h[8:1],,3h[8:1],,5h[8:1],,
{8}8qq4[16:9]/4h[8:1],,3h[8:1],,2h[8:1],,1h[8:1],,
{16}8h[8:3]/4h[8:3],,,,,,,,8-5[8:1],,,,,,,,
{16}7b,,5,6,,2,,35,,46,,7,7,,1,,
5,3,5,3,,7,,64,,53,,2,2,8,1,,
6,5,6,4,5,4,6,5,6,4,5,4,6,5,6,4,
8,,2,2,,7,7,,4h[8:1]/6h[8:1],,,2h[8:1]/5h[8:1],,,8,,
{16}2b,,4,3,,7,,64,,53,,2,2,,8,,
4,6,4,6,,2,,35,,46,,7,7,1,8,,
3,4,3,5,4,5,3,4,3,5,4,5,3,4,3,5,
1,,7,7,,2,2,,8h[8:1]/4b,,,4,7,5,6,4,
{16}5^8[32:5],,,,3,,,2h[8:1],,1,,,37,,3,,
{16}6^1[32:5],,,,4,,,3h[8:1],,2,,,48,,8,,
{16}3v8[32:5],,,,5,,,7^4[32:5],,1,,,2,,2,,
{16}3^6[32:5],,,,1,,,8h[8:1],,7,,,16,,,,
{16}1^4[32:5],,,,5,,,6h[8:1],,5,,,73,,7,,
{16}2^5[32:5],,,,8,,,7h[8:1],,6,,,84,,8,,
{16}3^6[32:5],,,,6,,,7h[8:1],,8,,,15,,1,,
{16}7-5[8:1],,,,4,,,1-3[32:3],,8-4[8:1],,,,,,,
{16}3b^8[32:5],,4,,3,,6,,7^4[32:5],,8,,7,,2,,
3-8[32:5],,4,,3,,6,,7-4[32:5],,8,,7,,2,,
3,,8qq3[16:7],,7,,6<2[16:3],,,,,,,,,,
38,,7,,56,,3,4,,4,3,,25,,2,,
{16}6-1[32:5],,5,,6,,3,,2-5[32:5],,1,,2,,7,,
6^1[32:5],,5,,6,,3,,2^5[32:5],,1,,2,,7,,
6,,5qq8[32:13],,4,,5/3^8[32:5],,,,,,,,,,
61,,2,,43,,6,5,,5,6,4,5,,2,,
{16}5/6,,8,,6,5,7,,6-3[8:1]/5,,,,3/6b,,,,
2,1,4,1,2,,3,,1/2-7[8:1],,,,2b/7,,,,
{16}6,5,8,5,6,5,7,,6-3[8:1]/5,,,,3/6b,,,,
2,1,4,,2,1,3,1,2,2,2,2,2,2,2,2,
2-6[8:1],,,,2b/8b,,,,7,,1,1,,5,4,6,
2,4,3,,1/7h[8:1],,5V37[4:1],6,3-8[8:1],,,,,,,,
2,4,1,4,3,5,2,5,4,6,3,6,2-6[8:1]*v5[8:1],,,,
2,,,,17,,26,,35,,6,6,1h[8:5],,,,
{16}3h[384:1],3h[384:1],3h[384:1],,4h[384:1],,4h[384:1],,1^4[8:1]/5^8[8:1],,,,,,,,
{16}3b/7b^2[8:1],,1/5,,3^6[8:1]/7,,5,5h[16:3],,,,,4,,8,,
3^6[8:1]/7,,1/5,,3/7^2[8:1],,1,1h[16:3],,,,,3,,4,,
1b-5[8:1]/6b,,,,1,,8,8,,3,4,,17,,2,,
6^3[8:1],5,7,,63,,,2h[8:1],,1,,7,8,6,1,5,
{16}2^7[8:1],,84,,6^3[8:1]/2,,4,4h[16:3],,,,,5,,1,,
6^3[8:1]/2,,84,,6/2^7[8:1],,8,8h[16:3],,,,,6,,5,,
8b-4[8:1]/3b,,,,8,,1,1,,6,5,,82,,7,,
3^6[8:1],4,2,,36,,,7,8,6,8,5,1,4,1,3,
2b-4[8:1],,8,,2-6[8:1],,1,1,2-8[8:1],,7-5[8:1],,2,,7,,
2-4[8:1],,8,,2-6[8:1],,1,1,2-8[8:1],,7-4[8:1],,2,,7,,
1-3[8:1],,2,,5^7[8:1],,6,,4-8[8:1],,3,,6^3[8:1],,7,,
,1,1,,2h[8:1]/8h[8:1],,,37,,37,,6,5,,3,4,
1-4[8:1],,,,1-6[8:1]/7-4[8:1],,,,17,,,,35,,3-5[8:1]/5^8[8:1],,
,,3/5-1[8:1],,,,7h[4:1],,,,8,,17,,35,,
26,,1,,56,,7,3,4h[8:1],,2,6,5h[8:1],,8,2,
4,3,7,3,5,4,7,3,6h[384:1],5h[384:1],8h[384:1],2h[384:1],7h[384:1],1h[384:1],4h[384:1],3h[384:1],
{8}1bq6[2:1],,,3h[8:5],,,,,
6p1[2:1],,,5h[8:5],,,,,
8>6[16:9],,,3h[8:5],,,,,
6p1[2:1],,,5h[8:5],,,,,
6,6,5/7h[8:3],,,8,17,,
3,3,4/2h[8:3],,,1,82,,
{16}3,5,3,4,2,4,3,5,3,4,1,4,3,6,3,4,
1,1,8,8,2,2,{24}7,6,5,{16}4v7[8:1]*q8[8:1]/3,,,,,,,,
{16}2b,4,3,4,2^5[8:1],,{32}8,7,6,,{16}2-6[8:1],,7,,2,1,1,,
8,5,7,5,8^5[8:1],,{32}4,3,2,,{16}8-4[8:1],,1,,8,3,3,,
6,5,6,3,5,3,7,5,7,4,5,4,6,5,6,2,
4,2,7,4,7,1,4,3,8b,,,26,26,,45,,
{16}7,5,6,5,7-4[8:1],,{32}4,3,2,,{16}7-3[8:1],,1,,7,8,8,,
1,4,3,4,1^4[8:1],,{32}5,6,7,,{16}1-5[8:1],,8,,1,6,6,,
3b,4,3,6,5,6,2,4,3,7,5,6,1,4,3,8,
5b,6h[384:1],1h[384:1],3b,2h[384:1],8h[384:1],6b,7h[384:1],1b-5[16:1]*-5[16:1],,,1b,8b,,,,
E
