&title=SAVIOR OF SONG
&artist=ナノ feat.MY FIRST STORY
&first=0.57
&wholebpm=192
&demo_seek=51.9
&demo_len=22
&lv_5=13
&lv_6=14+
&des_5=はっぴー
&des_6=GANNETZ!
&inote_5=(192)
{8}
3<6[4:1],,,7p3[4:1],,,2q6[4:1],,
,,,,
,,,,
6>3[4:1],,,2q6[4:1],,,7p3[4:1],,
,,,,
,,,,
3<6[4:1],,,7p3[4:1],,,2q6[4:1],,
,,,,
,,,
{8}3b/6b,,,,,,,,,,,,,
{16}4,5,3,6,4,5,4,,
,,
{24}1<6[8:1],2,3,
4,
,,
{4}1-4[8:1],1-6[8:1],1>4[8:1],1<6[8:1],1-5[8:1],1,38,
{24}8-3[8:1],7,6,
5,,,
{4}8-5[8:1],8-4[8:1],8,
{16}3,4,2,,6,5,7,,3,4,2,,{8}47,,
{24}8>3[8:1],7,6,
5,,,
{4}8-5[8:1],8-3[8:1],8<5[8:1],8>3[8:1],8-4[8:1],8,16,
{24}1-6[8:1],2,3,
4,,,
{4}1-4[8:1],1-5[8:1],1,18,
{16}1,8,2,7,1,8,2,7,3,6,
{2},,,
{8},,45,,
2>5[4:1],,,7>2[4:1],,,4<7[4:1],,,1>4[4:1],,,6,,45,,
7<4[4:1],,,2<7[4:1],,,5>2[4:1],,,8<5[4:1],,,3,3,45,,
3>8[4:1],,,6>3[4:1],,,1<6[4:1],,,4>1[4:1],,,7,,18,,
6<1[4:1],,,3<6[4:1],,,8>3[4:1],,,5<8[4:1],,,1,2,34,,
{8}37,6,4,5,26,3,5,4,37,2,8,1,26,7,48,,
26,3,5,4,37,6,4,5,26,7,1,8,37,2,15,,
37,2,8,1,26,7,1,8,37,2,8,1,26,7,45,,
16,78,25,34,,,38,12,47,56,,,45,,18,2b/7b,,
{2},,,
{8},,,25,7-3[8:1]/8-4[8:1],,78,,{16}6,5,6>3[8:1],,{8}7,8,1<6[8:1],2,4>1[8:1],,4,5,6,
47,1-5[8:1]/2-6[8:1],,12,,{16}3,4,3<6[8:1],,{8}2,1,8>3[8:1],7,5<8[8:1],,2>5[8:1]/5,,2/7h[4:1],,8,16,,
1,{16}6,5,6,,47,,8,,3,4,3,,25,,1,,6,5,6,,{8}47,34,,2-5[8:1]/6-2[8:1],,26,,18,3-7[8:1]/7-4[8:1],,3<6[8:1]/7>2[8:1],,,,78,1-5[8:1]/6-1[8:1],,16,,12,38,,
{16}3,4,3<6[8:1],,{8}2,1,8>3[8:1],7,5<8[8:1],,5,4,3,
25,7-3[8:1]/8-4[8:1],,78,,
{16}6,5,6>3[8:1],,{8}7,8,1<6[8:1],2,4>1[8:1],,4/7<4[8:1],,2h[4:1]/7,,1,38,,
8,{16}3,4,3,,25,,1,,6,5,6,,47,,8,,3,4,3,,{8}25,56,,3-7[8:1]/7-4[8:1],,37,,18,2-5[8:1]/6-2[8:1],,2<7[8:1]/6>3[8:1],,,,
12,3-8[8:1]/8-4[8:1],,38,,,,
{16}1,,6,5,6,,47,,8,,3,4,3,,25,,1,,6,5,6,,47,,35,,8,,46,,1,,5,,2,1,2,,38,,4,,7,8,7,,16,,5,,2,1,2,,
38,,46,,1,,35,,8,,
{4}2-5[8:1]/6,2/6-1[8:1],3-8[8:1]/6,3/7-4[8:1],2-5[8:1]/7,2/6-1[8:1],36,
{8}56,47,,12,3-8[8:1]/8-4[8:1],,3b/8b,,34,25,,78,1-5[8:1]/6-1[8:1],,1>7[4:1]/6b,,,,,
{24}8>3[8:1],7,6,
5,,,
{4}8-5[8:1],8-3[8:1],8<5[8:1],8>3[8:1],8-4[8:1],8,15,
{24}1-6[8:1],2,3,
4,,,
{4}1-4[8:1],1-5[8:1],1,
{24}8,7,6,5,,,
8-4[8:1],1,2,3,,,{4}8,26,
{24}1<6[8:1],2,3,4,
,,
{4}1-4[8:1],1-6[8:1],1>4[8:1],1<6[8:1],1-5[8:1],1,48,
{24}8-3[8:1],7,6,
5,,,
{4}8-5[8:1],8-4[8:1],8,
{16}3,,3,,6,,4,5,3,6,2,7,1,8,
{1},E
&inote_6=(192)
{8}
3>8[8:1],,,7<4[8:1],
,,8pp4[2:1],,
,,,,
,,,,
6<1[8:1],,,2>5[8:1],
,,1qq5[2:1],,
,,,,
,,,,
4>1[8:1],,,5<8[8:1],
,,1pp4[2:1]*qq6[2:1],,
,,,,
,,,4b/6b,
,,,,
,,,,
{16}
4,5,3,6,4,5,3,6,
4,,6,7,8,,1b/2b,,
,,{24}2,3,4,5,,,{16}1-6[8:1],,
,,4,3,2,,2,3,
4,,4,3,2,,2,3,
4,,6,3,7,2,8,,
,,{24}7,6,5,4,,,{16}8>3[8:1],,
,,5,6,7,,7,6,
5,,3,2,1,8,7,6,
5,4,3,,5,6,7,,
,,{24}2,3,4,5,,,{16}1-6[8:1],,
,,4,3,2,,2,3,
4,,4,3,2,,2,3,
4,,6,3,7,2,8,,
,,{24}7,6,5,4,,,{16}8>3[8:1],,
,,
5,6,7,,
7,6,
5,,3,2,1,,84,,
1,5,2,6,3,7,4,
8b-4[8:13]*-4[8:13],{1},,
{8}
2q6[4:1],,6q2[4:1],,2>6[4:1],,6<2[4:1],,2z6[8:3],,8h[8:3],,,,
8-4[8:1]*-4[8:1],,5,5^2[8:1],,1,1^6[8:1],,5,5-2[8:1],,2q5[8:3],,,
5V38[4:1],6,7,,7h,,7v4[4:1],4V68[8:1],7,1,2,3,
4v1[8:1]*v7[8:1],1V73[8:3]/7V15[8:3],,,,,,,
4^3[8:1],,,8,,,8^7[8:1]*^1[8:1],,,,,,
3s7[8:3]/6z2[8:3],36,3b/6b,,,,
14,1,17,7,75,5,51,1,12,2,24,2,8-4[8:1]/2,,2,,
64,6,16,1,14,4,24,2,24,2,25,26,2V84[4:1]/7V15[4:1],,,,,,
1-5[8:1],8-4[8:1],1,8,2b^7[2:1]*^7[2:1],,,,,,{24}4,3,2,1,8,7,
{8}63,62,61,6h[8:2]/8h[8:2],,,76,56,64,6/3>6[4:1],,,
5-1[86#8:6]*-1[86#8:6],,,,,2,,6,,6,5,,7,,2,3,4h[8:1],,4h[8:1],,
27,4-8[8:1]/5-1[8:1],,45,,
{16}
1-5[8:1],7,1,,1,,6-3[8:1],7,
8,,6,,7,,,,
{24}3,2,1,
{16}84,,,,4,5,
6,7,8,,2-6[8:1],,,,
2,,1,8,7,,57,,
6,5,4,,2-8[8:1],,2,,
4V68[4:1]/2,,4,,4,,,,
1,,28,,,,5,,
2,1,2,,38,,4,,
7,8,7,,16,,5,,
2,1,2,,38,,12,,
,,1h[4:1]/8,7,6,5,4,,
,,84,,8q4[8:1]/4q8[8:1],,,,
8<5[8:1]/4>1[8:1],,,,,,,,
78,,6-1[8:1]/1-5[8:1],,,,1b/6b,,
,,12,,83,,,,
8-4[8:1],2,8,,8,,3-6[8:1],2,
1,,3,,2,,,,
{24}6,7,8,
{16}15,,,,5,4,
3,2,1,,7-3[8:1],,,,
7,,8,1,2,,24,,
3,4,5,,7-1[8:1],,7,,
5V31[4:1]/7,,5,,5,,,,
8,,17,,,,4,,
7,8,7,,16,,5,,
2,1,2,,38,,4,,
7,8,7,,16,,78,,
,,8h[4:1]/1,2,3,4,5,,
,,15,,1p5[8:1]/5p1[8:1],,,,
1>4[8:1]/5<8[8:1],,,,,,,,
12,,8-4[8:1]/3-8[8:1],,,,8b/3b,,
,,78,,16,,
{16}25,,8,7,8,,25,,{24}3,4,3,{16}4,,2,,35,,1,,2,4,2,,34,,25,,
{24}8,7,8,{16}7,,4,6,4,,35,,8,,4,7,4,,65,,{24}7,8,7,
{16}8,,34,,2,,56,,7,,{32}7,6,5,4,3,2,1,8,{8}7b/2b,,
{16}
2-4[8:1]/7,1,8,,
2/7-5[8:1],8,1,,
27,1,8,,
{64}1,2,,,,,,,{8}8,{64}1,2,3,,,,,,
{8}8,{64}1,2,3,4,,,,,{8}8,{32}2,3,4,5,6,7,8,1,{8}2b/7b,
{16}2,6,2,6,3,7,3,7,4,8,4-1[8:1]*-7[8:1],,,,4,,,,
8,4,8,4,7,3,7,3,{8}6^1[8:1],,26,2,,
{24}2,3,4,5,,,{16}1^6[8:1],,
8,,4-7[8:1],3,2,,2-8[8:1]/4,3,
4,,4-7[8:1]/2,3,2,,2-7[8:1]/4,3,
4,,52,4,3,2,
14,,{16},,
{24}7,6,5,4,,,{16}8>3[8:1],,
1,,8/5-1[8:1],6,7,,
75,6,5,,
4,3,2,1,8,7,
6,4,3,2,6,7,8b,,1b,,
{24}2,3,4,5,,,{16}1^6[8:1],,
8,,4-7[8:1],3,2,,2-8[8:1]/4,3,
4,,4-7[8:1]/2,3,2,,2-7[8:1]/4,3,
4,,52,4,3,2,
{16}14,,
{24}7,6,5,4,,,{16}8>3[8:1],,
1,,
5,6,7,,
7,6,
5,,3,2,1,,{8}84,26,{16}4,5,3,6,2,7,1,{1}8b,E,
{1},,,,,,,,,,,,,,,,,,,,,,
