&title=Conway's Child
&artist=Sta
&first=0.00575
&des=Y∅RU
&demo_seek=35.1
&demo_len=14.9
&wholebpm=171
&lv_5=14+
&inote_5=(85.5)
{2},{96}8<8[1:1],1,2,,,,,,,,,,,,,,,,,,,,,,
{8},,,,,,,,2qq8qq6qq4qq2[8:8],,,,,,,,,,{16},8V24V68[64:60],,,,,,,,,,,Ch[16:8],,{8},,,,Cf,
(171.0)
4b,36,4,37,4,38,{16}5x,4x,5x,4x,
{8}5b,36,5,26,5,16,{16}8x,1x,8x,1x,
{8}8b,27,8,37,8,47,{16}1,8,1,8,
{8}1b,27,1,26,1,25,{16}4,5,4,5,
{8}4b,37,6,25,3,48,{16}1,8,7,6,
{8}5/4b,62,3,74,6,51,{16}8,1,2,3,
{8}4-8[12:1]/5b,3,4/6-2[12:1],7,6/3>8[12:1],4,3/7<4[12:1],6,7/1h[8:1],,
{36}E2,E3,E4,E5,E6,E7,E8,E1,E2,B3,B4,B5,B6,B7,B8,B1,B2,B3,
{8}Chf[8:2],,,,
{24}4h[4:1],,,,,,5h[4:1],,,,,,6h[4:1],,,,,,7h[2:2],,,,,B8,,,,B1,,,B2,,,,,,B3,,,,,,4h[8:8],,,,,,{8}E1,,E8,,E7,,5-1q6[8:5]*-1p4[8:5],,,,,,,,
{8}5h[4:1],,4h[4:1],,3h[4:1],,2h[1:1],,C,,E1,,E8,E7,E6,,5-7[4:1],,7-1[4:1],,1pp5[2:1],,4h[8:1],,4x,,4x,,B3,B6,Chf[4:1],,,,
{24}6-8[8:1],,,,,,4-6[8:1],,,,,,2-4[8:1],,,,,,8qq5[8:5],,,,,8,,,,5,,,4>2[8:1],,,,,,4,,,,,,
{8}1-7[4:1],,7-2[4:1],,2-6[4:1],,6-3[4:1],,3-5-7-1[8:5],,,,,,,,
5-7[8:1],,5>3[8:1],,5-8[8:1],,5-8>1qq5[4:3],,,,2>5[4:1],,D3,D4,D5,,
{24}4h[24:4],,,,5x,4x,6h[24:4],,,,5x,6x,4h[24:4],,,,5x,6x,7,8,1/5,4,3,2,{12}1b/B5f,,5b/B1f,,3b/B7f,,7b/B3f,,2b/Cf,,6b/Cf,,
{16}4b,5,4,5,4,5,4,5,
3b,6,3,6,3,6,3,6,
5b,6,5,6,5,6,5,6,
3b,7,3,7,3b,7,3,7,
4b,6,4,6,4,6,4,6,
2b,7,2,7,2,7,2,7,
1b,8,1,8,1b,8,1,8,
{32}1b,8,7,6,5,4,3,2,1/7b,6,5,4,3,2,1,8,
{16}7b,8,7,8,7,8,7,8,
7b,1,7,1,7,1,7,1,
6b,2,6,2,6,2,6,2,
5b,3,5,3,5b,3,5,3,
6b,4,6,4,6b,7,8,1,
2b,4,2,4,{20}2b,1,8,7,6,
{16}5b,3,6,4,5b,3,6,4,
5b,6,7,8,{20}1/5b,4,3,2,1,
{16}8b,6,8,6,2,7,2,7,
3b,5,3,5,2,6,2,6,
8b,7,1,6,8,7,1,6,
1b,8,2,7,1b,8,2,7,
3b,4,3,4,3,5,3,5,
4b,7,4,7,3,8,3,8,
2b,8,1,7,2b,8,1,7,
{32}2b,3,4,5,6,7,8,1,2/7b,6,5,4,3,2,1,8,
{16}7b,1,7,1,6,2,6,2,
6b,1,6,1,8,2,8,2,
8b,3,1,2,8,3,1,2,
8b,2,1,3,8b,2,1,3,
7b,3,7,3,7b,6,5,4,
3b,2,3,2,{20}3b,4,5,6,7,
{16}8b,1,8,1,
{32}8b,1,2,3,4,5,6,7,8/3b,4,5,6,7,8,1,2,{8}3h[4:1]b,,
B7,,B2,,B6,,B3,,E8,,E2,,E6,,E4,,
B7/B8,,B2/B1,,B5/B6,,B4/B3,
{16}B8,E1,B1,,B7,,B2,,B6,,B3,,B5,,B4,,E5,,
{4}Ch[4:4],5,5,6,6-2-8-4[4:3],4,4,3,3-8-5-3[8:5],5,6,7,
{32}E1,E2,E3,E4,E5,E6,E7,E8,B1,B2,B3,B4,B5,B6,B7,B8,B1/E2,E1,E8,E7,E6,E5,E4,E3,B1,B8,B7,B6,B5,B4,B3,B2,{16}B1/Cf,,
6x,,4,,5,,3,,5,4>2[16:1],5-1[8:1],,4,,5,,
2x,,8,,1,,7,,8,1-3[16:1],8v5[8:1],,1,,8,,
4x,,4,,5,,5,,4,3,2v5[8:1],,5,,2/7-5[8:1],,8,,7/4>1[16:3],,3,,4x/8x,7,6,5,8,7,6,5,
{12}4b,3x,2x,4x,5x,6x,
1b,2,3,1,2,3,
8b,1,2,3/1,8,7,6/8b,7,6,
5/7b,6,5,
3b,3,4,3b,3,2,
5b,5,4,5b,5,6,
4b,4,4,6b,6,6,5bz1[12:1]/4bs8[12:1],,,Cf,,,
8b,1,2,8,1,2,8v5[12:1],1,2,8,,
2x,2,3,4,3,4,5,1>4[12:1],8,7,1,,
6x,6,5,4,2,3,4,8qq6[12:1],7,6,8,,
1x,1,2,3,8,7,6,
{24}1,2,3,4,5,6,7,8,1,2,3,4,
{12}5h[12:1]/7bh,,6h,2h,4h,3h,6h,4h,5h,3h[12:2],,,
6h,8h,7h,3h,1h,2h,7h,1h,8h,2h[12:2],,,
8h,1h,2h,3h/1h,2h,3h,4h/2h,3h,4h,5h/3h[12:2],,,
6h,7h,8h,1h/7h,8h,1h,{32}2h/8h,E1,E2,E3,E4,E5,E6,E7,E8,B1,B2,B3,B4,B5,B6,B7,
{12}B8f/1b-7[12:1],2,3,4>2[12:1],5,6h,7-3[12:1],8,1h,2,,
1,4b-1[12:1],5,6,7<5[12:1],8,7,2<1-7[12:1],3,4,2h,,
3,8b>3[12:1],7,6,5q1[12:1],6,7,1-7<6[12:1],2,3,4,,
4,5b<7[12:1],4,3,2,1,8,
{24}1b,2,3,4,5,6,7/8bh,1,2,3,4,5,
{12}6b>3[12:1],3,2,1b<6[12:1],8,1,2bv5[12:1],3,5,2b,,
4,1b>4[12:1],8,7,6b<1[12:1],5,6,1bv6[12:1],2,3,1b,,
5,8b-5[12:1],1,2,3b-1[12:1],4,7,6b>3[12:1],7,8h,1b,,,
2bw6[12:1],,,{48}2b,,Cf,,,,,,,,,,
{32}7h/6b,5,4,3,2/1h,8,7,6,5/4bh,3,2,1,8/7h,6,5,4,{1}3b>2<2qq3[2:3]*<4<4pp3[2:3],,
{16}6,5,7,4,8,3,1,2,7,8,6,1,5,2,4,3,
5,6,7,8,5,4,3,2,
{32}1/4b,5,6,7,8,1,2,3,4/5b,6,7,8,1,2,3,4,{16}5h[16:1]/6b,,6,5,7,4,7,4,
1b,2,8,3,1,2,8,3,
8b,7,1,2,8,7,1,2,
{24}8b,7,6,1,2,3,8b,7,6,1,2,3,
{16}5b,3,5,3,5b,4,3,2,
1b,3,1,3,{20}1b,8,7,6,5,
{16}4b,3,4,3,
{24}4b,5,6,7,8,1,2/5bh,6,7,8,1,2,3/6bh,7,8,1,2,3,
{16}4bh,5,4,5,3,7,3,7,
3b,4,2,6,5,7,3,4,
1b,6,5,8,2,7,3,6,
{24}2b,3,4,7,6,5,2b,3,4,7,6,5,
{16}2b,7,1,8,2,7,1,8,
3b,6,4,5,3,6,4,5,
{24}2b,3,4,8,7,6,1b,2,3,7,6,5,
{32}1bh,2,3,4,8h,7,6,5,1bh,2,3,4,8h,7,6,5,
{16}4b,2,4,2,6,4,6,4,
7b,1,7,1,8,2,8,2,
7b,6,2,3,7,6,2,3,
{24}7b,6,5,2,3,4,8b,7,6,1,2,3,
{32}8b,7,6,5,4,,,,
8b,1,2,3,4,,,,
{32}8b,7,6,5,4,3,2,1,8b,7,6,5,4,3,2,1,
{36}8/4b,5,6,7,8,1,2b,3,4,5,6,7,8b,1,2,3,4,5,6b/2bh,7,8,1,2,3,4b/8bh,5,6,7,8,1,2b/6bh,3,4,5,6,7,
{1}4bh/8b>1>2>3<4<5<6<7>8[4:14]b,,,,
6x>5p2<1-7-5[8:12]/4h[8:14]x,,
5h[8:14]x/3qq6-8>4[8:12],,
{24}3h[4:6]x,,,,,,E2,,,,,,E1,,,,,,E8,,,,,,B1,,,,,B8,,,,B7,,,B6,,,,,,{4}Ch[8:16],
2x,2x,3x,3xV17-2-5>3[8:6],,,,,
{24}6h[4:6]x,,,,,,E8,,,,,,E1,,,,,,E2,,,,,,8x,,,,,1x,,,,2x,,,3x-1<8[8:1],,,,,,3x,,,,,,6h[4:1]x,,,,,,8h[4:1]x,,,,,,{16}7x,6x,5x,8x,4,1,5,2,6,3,7,8,4,8,3,8,2,8,1,8,1,7,1,6,
{24}1bh,8,7,6,5,4,3,2,1,8,7,6,{32}5/1bh,2,3,4,5,6,7,8,1-5[16:1]b,2,3,4,5,6,7,8,1bh,Cf`B1/B2/B3/B4/B5/B6/B7/B8,
E
