&title=Cadena
&artist=山本美禰子/PlayStation3「メルルのアトリエ 〜アーランドの錬金術士3〜」OPテーマ
&first=0.34
&des=Ragna
&wholebpm=133.33
&demo_seek=0
&demo_len=16.7
&des_5=Ragna
&lv_5=13+
&inote_5=(133.33333333)
{64}1b/8b,2b/7b,3b/6b,4b<4[16:7]/5b>5[16:7],{16},,,{4},,,
3v1[8:1]/6v8[8:1],36,{6}3v1[8:1]/6v8[8:1],45,,
{64}1b/8b,2b/7b,3b/6b,4b<4[16:7]/5b>5[16:7],{16},,,{4},,,
3qq1[8:1]/6pp8[8:1],36,{6}3qq1[8:1]/6pp8[8:1],45,,
{64}1b/8b,2b/7b,3b/6b,4b<4[16:7]/5b>5[16:7],{16},,,{4},,,
3q8[8:1]/6p1[8:1],36,{6}3q8[8:1]/6p1[8:1],45,,
{64}1b/8b,2b/7b,3b/6b,4b<4[16:7]/5b>5[16:7],{16},,,{4},,,
{64}1b/2b,3,4,5,{16},,,{64}8b/7b,6,5,4,{16},,,{64}1b/8b,27,36,45,{16},,,{4},{6}
3>7[24:5],,,6<2[24:5],,3,
4>5[3:1],,,,8h[6:1],7h[6:1],
6h[6:1],5h[6:1],4h[6:1],3qq5[24:7],,7,
8qq4[24:7],{12},4,3,2,{6}1w5[8:1],,,
3>7[24:5],,,6h[6:1],5h[6:1],4h[6:1],
3qq6[24:7],,,,8h[6:1],7h[6:1],
6<2[24:5],,,3h[6:1],4h[6:1],5,
{64}8b/7b,6,5,4,{16},,,{64}1b/2b,3,4,5,{16},,,{64}1b/8b,27,36,45,{16},,,{12},,,
6h[3:1],,,,5,,74,,,,3,4,
3h[4:1],,,5>1[24:5],4,6,5,,,,7,8,
{6}7h[3:1],,5>1[9:2],2<2[9:4],7<7[9:4],4>4[9:4],
1<1[9:4],,,,,,
{12}2^4[8:1]/7^5[8:1],,,27,,,2^4[8:1]/7^5[8:1],,18,,,,
3^8[8:1]/6^1[8:1],,,36,,,3^8[8:1]/6^1[8:1],,45,,,,
2h[3:1]/7h[3:1],,,,,,8h[6:1],,3h[6:1],,5h[6:1],,
1,7,4,5,2,8,1b>5[24:5]*<5[24:5],,,,,,,,{15},{12}
3h[3:1],,,,4,,25,,,,6,5,
6h[4:1],,,4V68[24:5],5,3,4,,,,2,1,
{6}2h[3:1],,4<8[9:2]*<8[9:2],7>7[9:4]*>7[9:4],
2>2[9:4]*>2[9:4],5<5[9:4]*<5[9:4],8>8[9:4]*>8[9:4],,,,,,
{12}2-4[8:1]/7-5[8:1],,,27,,,2-4[8:1]/7-5[8:1],,18,,,,
3-8[8:1]/6-1[8:1],,,36,,,3-8[8:1]/6-1[8:1],,45,,,,
2-6[8:1]/7-3[8:1],,,27,,,4h[6:1],,6h[6:1],,1h[6:1],,
8b>7[8:3],,,,,,1,,2,,3,,
8^5[8:1]/4^1[8:1],,,84,,,2-5[6:1],,5-1[6:1],,1-6[6:1],,
6<3[4:1],,,,,,,,5^8[8:1]/4,,3,,
2,,1^4[8:1]/8,,7,,6pp4[24:7],,,,2,,
1pp5[24:7],,,5,6,7,{6}8w4[8:1],,,
2-7[6:1],7-4[6:1],4-1[6:1],1-6[6:1],6-3[6:1],3-8[6:1],
8V63[4:1],,,,4^1[8:1]/5,6,
7,8^5[8:1]/1,2,3qq6[24:7],,7,
8b<1[12:5],,,,,,
{64}1b^6[8:1]/8b,2,3,4,{16},,,
{64}1b/2b,3,4,5,{16},,,{6}74,34,27,
{64}8b^3[8:1]/1b,7,6,5,{16},,,
{64}7b/8b,6,5,4,{16},,,{6}25,48,16,
{64}8b^5[8:1]/7b,1,2,3,{16},,,
{64}1b/8b,2,3,4,{16},,,{6}36,15,38,
{64}1b^4[8:1]/2b,8,7,6,{16},,,
{64}1b/8b,7,6,5,{16},,,{6}36,84,27,
{64}8bv3[8:1]/1b,2,3,4,{16},,,
{64}7b/8b,6,5,4,{16},,,{6}25,84,27,
{64}1bv6[8:1]/8b,7,6,5,{16},,,
{64}1b/2b,3,4,5,{16},,,{6}74,15,38,
{64}1bv4[8:1]/2b,3,4,5,{16},,,
{64}1b/8b,7,6,5,{16},,,{6}36,74,16,
{64}8bv5[8:1]/7b,6,5,4,{16},,,
{64}1b/8b,2,3,4,{16},,,{6}36,85,27,
{64}1b/8b,2b/7b,3b/6b,4b<4[16:7]/5b>5[16:7],{16},,,{4},,,
{64}1b/2b,38,47,56,{16},,{24},{64}8b/7b,61,52,43,{16},,,{64}1b/8b,2b/7b,3b/6b,4b/5b,{16},,,{4},E
