&title=ミクミク動画葱祭
&artist=たし
&first=0.09999999
&lv_5=39
&des=软糖酱
&des_5=软糖酱
&inote_5=
(143){4},{8},,,,,,,,,6,
5,4,3,2,
{4}1v4[8:1],{8}1,7v4[8:1],,7,3,2h[8:5],
,5,6,7,{2}8,
{4}8v5[8:1],{8}8,2v5[8:1],,2,6,7,
8,8h[4:3],,4,,4,3,2,
{1}8b-5b[2:1]/1bv4>1b[0.4196##2.1443],
(139){2}6,(135){4}8,(130)7h[8:1]/1h[8:1],
(120){8}6h[8:1]/2h[8:1],,,(126)5bpp4b[1:1]/3bqq4b[1:1],,,,,,,,,,,,(181)8/4,
7/3,6h[8:1]/2h[8:1],,,{2}5b<8[8:1]/1b>4[8:1],
{8},1/5,,E8/E1/E2,,B5/B4,,Cf,
,(188)6-2[8:1],{16},4,,,,,,,{8}5,6,
4,3-7[8:1],{16},5,,,,,,,{8}6,5,
7,8-4[8:1],{16},3,,,{8}1,2,2,3,
{16}3,4pp1[16:5],,,,,,,,,,,{8}2/7,4/5,
,8/7,{16},3/4,,,{4}2-6[8:1]/1-5[8:1],1/2,
{8}7,7h[16:3],{16},6h[16:3],,,{8}5<7[8:1]*>2[8:1],5,,,4,
4h[16:3],{16},3,,,{4}1/6,{8}1/2,3/8,
4/7,6/5,{16},5b/1b,,,{8}8,7,6,5/1>4[8:1],
,1/8<5[8:1],,8/1>4[8:1],,1/8<5[8:1],,8/1>4[8:1],
,1/8<5[8:1],,8/1>4[8:1],,1/8b,,5/4,
3,3,4,5,6,5>2[8:1]*<8[8:1],,,,5/2,
6/1,2/5,6/1,2/5,1b/8b,8b/1V38[8:1],
,8x-3-7[8:1],7,6,5,4<8[4:1],,8p2[4:1],
,2q8[4:1],,8p4[8:1],,2h[4:1],,3,
2,1,,3/4,,6/5,,2/3,
4,5/1,6/2,7/3,8/4,5>2[8:1]/1<6[8:1],,5/1,
,7bx/1bx,{16}3,4,{8}3,8bx/2bx,{16}6,5,{8}6,7bx/1bx,
{16}3,4,{8}3,8h[8:1],7h[8:1],6h[8:1],5h[8:1],4h[8:1],3h[8:1],
2h[8:1],1h[4:1],,8,7h[4:1],8,1h[4:1],8,
{4}7>2[4:1],2>5[4:1],{2}5<4[2:1],
{8},,,2h[4:1],1,8h[4:1],1,2,
{4}1-6[4:1],6-3[4:1],3-8[4:1],{8}8-5[4:1],5,
4,,,3h[4:1],1,8h[4:1],1,2,
{4}3,{8}8-4[8:1]/7-3[8:1],6/1,{4}8/7,{8}7,2,
8,1>4[8:1],,1,{4}8,7b-4[8:1],
2b-6[8:1],8b-4[8:1],1b-5[8:1],7b,
{8}7,6h[4:1],8-4[8:1],3h[8:1],8,3h[4:1],1-5[8:1],6h[8:1],
1,7>2[8:1],,2,4<8[4:1],,,1b,
,2-7[8:1],2,6-3[8:1],6,2<7[8:1],2,6>3[8:1],
6,1h[8:3],,8,8,,,6b/2b,
,1-5[8:1],,8-4[8:1],,2>5[8:1],,7,
,1-6[8:1]/2-5[8:1],,2/1,,8-3[8:1]/7-4[8:1],,7/8,
,2,1,4,5,8,7,1/6,
,8>3[8:1]/7<4[8:1],,8/7,,,,1,
3,3,2/1,1/2,{16},8,1,8,2,1,{8}2,
{16}6,5,{8}7-4[8:1],8,2-5[8:1],1,8-4[8:1],1,3,
{16},3,{8}3,1/2,1/2,{16},3,{8}3,{16}6,6,,4,
{8}4,{16}6,5,6,5,7,8,{8}7,8/3,7/2,6/1-6[8:1],
7,8,,3/8-3[8:1],2,1,,7<4[8:1],
7,3>8[8:1],3,7,7,6/1,,4/6-1[8:1],
3,2,,5/3-8[8:1],6,7,,3/6qq3[2:1],
,,,,,1,,8,
,7/5,6,4/2,3,7/5,6/4-7[8:1],3/5,
{4}4/2,{8}1-4[8:1]*-6[8:1],8/2,{4}1b,{8}5,4,
3,2/5,6,7/3,2,1/6,7,2/8-4[8:1],
7/1,6/8,,5/3,{4}1-6[8:1]/2-5[8:1],2b/1b,
{8}7/4,2/5,,7/4,{4}2/5,{16}3,4,{8}3,
5/2,1,8,7/4,{4}5/2>5[8:1],{8}5,6,
7,8,{4}1>4[8:1],7,{16}6,5,{8}6,
7/4,5/2>5[8:1],,2b,{4}1>4[8:1],{8}1b,{16}5,6,
7,8,{8}1b>8[8:3],,,,,2,3,
4,5-1[8:1],,,6,5-1[8:1],,2,
4,3h[1:1],,8b,,4b,,2b,
,6b,,6h[4:1],,5h[4:1],,4-8[8:1],
,3b>4[8:3],,,,,7,7,
6h[8:5],8b,,4b,,2b,,,8/7,
6/1,,1/2,{4}3/8,{8}6/3,5-1[8:1]/4-8[8:1],
,5b/4b,,,6<4[8:3]/3>5[8:3],5b/4b,,,,,,,3,
3,8,8,
2b/1b,8,{4}7,{8}5,5,6,6,
{4}8-4[8:1]/7-5[8:1],8/7,{8}3,3,2,2,
{4}1>4[8:1],{8}5,6,7,7,8,8,
{4}1-5[8:1]/2-4[8:1],1/2,{8},5,5,4,
4,6-1[8:1],5,4,3-8[8:1],4,{4}5,
{8}6,7,{4}8<5[8:1],2b>5[4:1],{8}1,1,
1,7>2[8:1],,3,{4}4-1[8:1],4/7-2[8:1],
7/3,{8}1-5[8:1],8-4[8:1],1b,8b,{16},2xpp6[8:3],,,{8}1,
8,,,7,5qq8[8:3],{16},8,,,{8}6,
7-3[8:1],,,4,2qq5[8:3],{16},5,,,{8}7,
6-2[8:1],,1,{4}3pp6[8:3],8b,
7>2[8:1],{8}5,4,,3>8[8:1],{16},7,,,{8}7,
5<8[8:1],,2,{4}3-6[8:1],3/1-4[8:1],
1/8-5[8:1],8/2-7[8:1],2/6-3[8:1],6/1-4[8:1],
1/8,{8}6/3,5/4,,2/7,{4}1-4[8:1]/8-5[8:1],
1b/8b,{8}6/3,3/6,7/2,2/7,{4}8b/1b,
{8},8/2-7[8:1],,6,,4/6-3[8:1],,2,
,6h[4:1]/8p3[8:1],,,,1/2,,1>5[4:1],
,5<1[4:1],,1>5[4:1],,5<1[4:1],,1>8[2:1]*q8[2:1],
,,,,,,,,,6-4[8:1]/3-7[8:1],
,,,2-4[8:1]/5-1[8:1],,,,8/7,
,1/2,,4/3,,6h[4:1]/5h[2:1],
,,,6q3[4:1],,1h[4:1],,,,7/2,
{16}2,1,{8}2,{16}7,8,{8}7,1,2/8,
,5-8[8:1]/1-4[8:1],,5x/1x,,7,7,5,
{4}5-1[8:1],{8}8,8,7,6/1,3,4/7,
{4}8-4[8:1],{8}1,1,2,3/8,6,5/1,
{4}2-5[4:1],5-1[4:1],1-6[4:1],6,
{8},7b/1b,,3/1q5[8:1],8/2,7,,7/1p5[8:1],
8/2,3,,3/1-4[8:1],2/8,7/1-6[8:1],,1,
,8/2,,6/8p4[8:1],1/7,2,,2/8q4[8:1],
1/7,6,,8/6,7/1,8/2,7/1,8/6,
,2/8-4[8:1],,3,,7/1-5[8:1],,6,
,2/8-4[8:1],3,3,,7/1,6,3/5h[4:1],
,1-5[8:1],,6,,2/8-4[8:1],,3,
2,6/1-5[8:1],,7,,4/8,{4}8b<5[8:1]/4b>1[8:1],
{8},,,4<8[4:1],,8b,,1,
,2,,3,3-7[4:1],,,6,
8,8-4[4:1],,5,3,,,7-4[2:1]/2<7[2:1],
,7b/2b,,,,,,8-3[8:1],
8,5h[8:3],,,4,4h[1:1],,,,,,,,5,
{4}3>5[3:1],
{8},,,,,7/4,,5/6-1[8:1],
,2,,4/3-8[8:1],,7h[4:1],,8>6[3:1],
,,,,,8/3,,4/3>8[8:1],
,7,,5/6<1[8:1],,2h[4:1],,3<8[8:3],
,,,,,2/5,,3/4,
,1v4[8:1]/7v4[8:1],,,,6/3,,8/1,
,4/5,,6pp4[2:1]/3qq5[2:1],,,,,,,,,,8/3,
{16},7/4,,,{8}6/5-1[8:1],
,,8-6[8:1],,2-4[8:1],,1-5[8:1],
,2>6[4:1],,6,{4}7>2[4:1],{8}2,3,
4,5-1[8:1],5,8-4[8:1],8,1,{16},2,,,{4}3-8[8:1]/4-7[8:1],
4/3,{8},1/6,{16},2/5,,,{8}3/4-8[8:1],
,,1-3[8:1],,7-5[8:1],,8-3[8:1],
8-5[8:1],,,3,{16},3,{8}4,,5>8[4:1]/4V28[4:1],
,,,,6,5,3,4,
{16},7/2,,,,5,{8}4,{24},,,6/3,,4,,5,,{8}6b/3b<6[4:1],
,6-2[4:1],,2<7[4:1],,7-3[4:1],,3<6[4:1],
,6qq1[2:1],,1,{24},,,,,,,,,,,,,,{12}2/4,
,8/1,,7/5,,5/4,,2/4,,8/1,
{24},,,{8}1b/6h[4:3],,2b,,3b,,4b,
,5bpp5[4:1]*qq5[4:1],,5-1[8:1],,,,,8,
1/7-4[8:1],,7/2-5[8:1],,2/8-3[8:1],,8/1-6[8:1],
,1/8-5[8:1],,8-3[8:1],,8,,7<4[4:1],
7,,,3,,8/1,,7/2,
,4/7<4[8:1],,2,,4/8>3[8:1],,5,
,7>2[8:1],,5,{4}5,{8}4/7,4/7,
,1b/6b,,,3b/8b,,,8b/1b,
,1b/2h[8:7],,7b,,5b,,3b,
3b,5/4,{16},5/4,,,{8}2/3,5/4,{16},5/4,,,{8}7/6,
5/4,{16},5/4,,,{8}8/1,8-4[8:1]/1-5[8:1],,8/1,
,8/1,{16},8/1,,,{8}4/3,8/1,{16},8/1,,,{8}6/5,
1-3[8:1]/8-4[8:1],,1x/8x,,8/1,,2/8,
1-5[8:1],1x,{16},6h[16:3],,,{8}5,4/7<4[8:1],,3,
2,1,8,7/2-5[8:1],6,6,,8/7,
6/5,2/4h[16:3],{16},5h[16:3],,,{8}7,5/7-3[8:1],,8,
1,2,3,4/8-4[8:1],3,2,,8>3[4:1],
8,7,{16},7,,,{8}7,6/5,,,4,
4<7[4:1],4,1,2,3,,8/7,
6/5,3-1[8:1]/4-8[8:1],,4x/3x,,6-8[8:1]/5-1[8:1],,5x/6x,
,4x>1[8:1],4x<7[8:1],4x-8[8:1],4x,4x,,7-3[8:1],
6/8,7,,1-5[8:1],2/8,1,,7h[8:1],
5,2h[8:1],4,5<7[8:1]*>2[8:1],5,,,1-5[8:1],
2/8,1,,7-3[8:1],6/8,7,2,2,
2,8w4[8:1],{4}2/6,{8},,,6-2[8:1],
7/5,6,,4-8[8:1],3/5,4,,6h[8:1],
8,3h[8:1],1,8<6[8:1]*>3[8:1],8,,,4,
5,1,1,6,6,2,5,3,
4,1x>4[8:1],1x<6[8:1],1x-5[8:1],1x,1x,,1b/8w4[8:1],
,8>5[4:1],,,6,7,,8,
8,4,6,3,5,1b>4[4:1],,7,
6,5b,,,7,7b-3[8:1],,,1,
1b-5[8:1],,,8,8b-4[8:1],,,,8bV24[8:1],
,,,8bV64[8:1],,,,8bp4[8:1]*q4[8:1],
,,,8,,1,
,7,,6/5,,6,5,5/4,
{4}8,{16}3,4,{8}3,2,1b/8b,,7,
6,5>2[8:1],,1,{4}8,6-3[8:1],
{8},8,,2,{4}3<6[8:1],{8}7,8h[4:1],
,1>4[8:1],,7,{4}6,{8}5,4>1[8:1],
,7h[4:3],,,,,,3,
8,2b-6[8:1],,,8b-4[8:1],,,1b>4[0.3192##0.1885],
{16},,,(160)8h[32:7],{32},,,,,2h[4:1],,,,,,,,6h[32:7],,,,,,,{8}4h[#0.1875],
(108){1}Ch[2:3],
{8},,,,(150)2h[8:3],,,8h[8:1],
{4}1h[4:1],7h[4:1],{16}3,4,{8}3,5,4,
{16}6,5,{8}6,4,5,(166){4}2h[#0.5814514],(150){8},{16}8,1,
(180){4}7h[4:1],1-5[0.33##0.1486],(190)7-3[8:1],6-2[8:1],
{2}4-8[8:1],(188){8}7>2[8:1],5,4,5,
3>8[8:1],4,5,4,7>2[8:1],5,4,5,
3>6[8:3],6,5,6q3[4:1],,5,{4}5,
5<4b[8:3],{8}4,4p6b[4:1],,5,{4}5,
{16},,7,8,1,2,3,4,{8}5/6-1[8:1],7,6/5,4,
5/6-1[8:1],7,6/5,4,5/6-1[8:1],7,6/5,4,
{4}6/4>5[8:3],{8}5,5q3[4:1],,4,{4}4,
5<4b[8:3],{8}4,4p6b[4:1],,5,5,{16}4,3,
{4}2>5[8:1],7,(189){8}1h[8:3],,,8-4[8:1],
2,,,1h[2:1],,,,7,
{4}3,4V28[8:1]/8V64[8:1],{2}8b/4b,
{4}7h[4:1],1-5[8:1],1b/3h[8:3],{8}2,1,
,3,7h[8:3],5b<3[8:3],,,,,,,8-3[8:1],
1,{4}8/2-5[8:1],2/7-4[8:1],
7/1-6[8:1],1/8-3[8:1],{8}8/3,,,2<4[16:7],
2h[8:3],,,,,,,1x>4[8:1],
1x,7,8x,8x,2>4[8:1],1,2,7<5[8:1],
8,7,8,4h[4:1],{16},3h[16:1],,,{8}8/6x,7,
1/3x,2,1/8x,1x,7-5[8:1],8,7,2-4[8:1],
1,2,6h[8:1],3,,8b/1b,,,{4}2x-6[8:1],
{8}5x,7x,{4}8h[4:1],{8}4,5,
,1b/8b,,7,{16}1,2,{8}3,5xh[2:1],3,
3x,4,4x,6x/3x,{4}8-6[8:1]/1-3[8:1],8/1,
{8}5/4,8/1,6/3,7,4,2,7,5,
,1,8,7,8<5[16:3],2,1,8,
{4}7b,{8}6>3[16:3],7,8,1,2,3,
{4}4b,{8}2<7[16:3],3,4,5,6,7,
{4}8b,{8}1-4[8:1],1-5[8:1],{2}1-6[8:1],
{8}8,8,7>2[16:3],6,5,,,2,
{4}2,{8}2,1,8,7,1,1,
,7>5[16:7],{4}7h[8:3],{8},,,,,,,7/2,
8/1,8-4[8:1]/1-5[8:1],,8b/1b,
,6b/3b,,2,2>5[8:1],5qq6[8:3],5,6,
,8,,7,7<4[8:1],4pp3[8:3],4,3,
,1,,4,5,6,7/4,7/4,
,E1/B1/B2/E3/Cf,,4,4,3/5,3/5,2/6,
,B1/B8/B7/B2/B6/Cf,,7,7<4[8:1],4pp8[8:3],{4}4,
{8},1>5[4:1],,5<1[4:1],,1>5[4:1],,5,
,1<2[8:3],,,,,,,,,,5x/4xq5[4:1],
,4x/5x<4[4:1],,,,,{4}E6/E5/E4,
{8}E8/B8/B1/E2/B7/E7/B2/E3/Cf,{16},,,,7,6,
{8}5h[4:1],,,2,{16}1h[4:1],,,,,,,1,
{8}2h[4:1],,,1,8h[4:1],{16},,,,6,5,
{8}4h[4:1],,,4,{4}5h[4:1],1<6[4:1],
1,2,{8}3,,,5,
{4}4,7h[4:1],8h[4:1],1h[4:1],
{8}2h[2:1],,,8,{4}7h[4:1],1-7[8:1],
{1}1-4[8:1],
{4}1-4[8:1],1,{8}7-4[8:1],8,7,2,
1-5[8:1],8,1,6,8-4[8:1],7,{4}8,
{8},4-1[8:1],5,4,6-1[8:1],5,6,5,
4-8[8:1],5,4,7,5-1[8:1],6,{4}5,
{8},8-4[8:1],8,1,{4}2-6[8:1],8/2b,
{8}1-5[8:1],1,8,7-3[8:1],,1/7b,,,{4}8<5[8:1],
{8}8,1,{4}7/2-5[8:1],2/7-4[8:1],
7/2q5[8:3],2/7,,,5b/4b,
2,1/8-4[0.6317##0.1555],7,
8/1-5[0.6317##0.1555],2,1/8<5[0.6317##0.1555],7,
8/1>4[0.6317##0.1555],2,1/7<4[0.6317##0.1555],6,
7/1-5[0.6317##0.1555],2,1/8-4[0.6317##0.1555],7,
8/2,8/1,2,8/1-5[0.6317##0.1555],
2,1/7-3[0.6317##0.1555],6,7/1,
2,6/5,8/3,3/4,
1/6,8/1,5/4,5/4,
{8}7b/2b,8,7,8,{4}8>3[8:1],7,
{8}5,4>1[8:1],,7,,8,7,1,
2,8/1,,,{4}8>3[8:1],{8}7,7,
,5-2[8:1],,5-8[8:1],,,{4}1>4[8:1],
{8}7,6-3[8:1],,,8>3[8:1],,,7,
8>3[8:1],,,7,8,1,2,7b,
,,8-4[8:1]/1-5[8:1],7/2,8/1,,,1,
{4}1V36[8:1],{8}6,7,8-4[8:1],1-5[8:1],8,1,
7h[8:3],,,2,{4}8b/1b,3-6[8:1],
3/7-2[8:1],7/4-1[8:1],4/8-5[8:1],8/3-6[8:1],
3/7-2[8:1],7/4-1[8:1],4/8-5[8:1],8/3-6[8:1],
3/7-2[8:1],7/5,{8}4,6,{4}1V35[8:1],
7-3[8:1],{8}8,1,{4}2V46[8:1],{8}8,8-4[8:1],
,3,,2,{4}7,{8}8b/1b,8b/1b,
,7,8,1,{4}2b>7[4:1],{8}1,8b<6[8:1],
,,2,3,{6}5/4,5/4,5/4,
{48},,,,,,,,,,,,,,,,,,{16}3,4,{8}3,5,2,{16}8,1,
,,{8}7,4,{16}6,5,{8}6,4-2[8:1],7,4,
,7-5[8:1],2,7,{16},,1,8,{8}1,{16}7,2,
,,{8}6,5,4,3,{16}7,8,{8}7,{16}2,1,
{8}2,5/4,{16},,1,8,{4}7,{16}4,,,5,
,,{8}1>4[8:1],8,1,{16},,,,6,5,6-1[4:1],5,
,,{8}2,3,4,4>8[4:1],{16},,,,7>4[8:3],6,
,,,,,,{8}6,{4}5,7,
8,{16}1,8,{8}1>6[4:1],{6}E7,E8,E1,
{24},,,{8}4,7/3,2,{16}8/1,,,7,{8}2,6/3,
,7,8,2,{16}1,,,5h[16:3],,,{8}4,
,,3,7/2,{16}8/1,,,6,{8}3,4/5,
,,6h[8:5],2,{4}1,{8}1,2,
,2,3-1[8:1],3,{4}4,{8}3-8[8:1],3,
{4}4,{8}6-1[8:1],6,{4}5,{8}6-8[8:1],6,
{4}5,{8}1,4/3,{16}6b,,,8,{8}7,2b,
8,{16}5,6,{8}5,7,5-3[8:1],6,6,7h[4:1],
,2,6,4,{16}5,,,1,{8}2/8,3,
{4}5/4,{8}6,4,5-7[8:1],4,4,3h[4:1],
,5,2,4/3,{4}7/5,7/1,
8/2,2/4,{8}8h[4:1],1,1,2h[4:1],
,8,3,7,4,6,5,7h[16:5],
{16},,,4,{4}5,{8}3,{16}3,4,{8}2,6,
{4}8,{8}1h[8:1],5,{16},,7,8,,3,{8}4,
,,6,7<4[8:1],8,1,2<7[8:1],3,
4,5>2[8:1],6,7,,8-4[8:1]/7-5[8:1],{4}8/7,
{8},,1,2h[4:1],,,5,6h[4:1],
{16},,2,2,{8}1,8,{4}8-4[8:1],8<5[8:1]*>3[8:1],
8,{8}4,8,7h[4:1],8,2h[4:1],1,
6h[4:1],8,3h[4:1],1,5,4/5-1[8:1],,5/4,
,2,3,4h[4:1],,6,6/5,2,
2/1,7,7/8,4>8[4:1],4,8<4[4:1],,4,
,8,{4}8b,1/8-3[8:1],8/1-6[8:1],
1/7-4[8:1],{8}7/2,2h[4:3],{16},,8,8x,,,{8}7,
1-4[8:1],7h[4:1],{4}1,8/1q6[8:1],1/8p3[8:1],
8/1q6[8:1],{8}1/8,8h[4:3],,7,,2,
6>3[8:1],2h[4:1],{4}6,1-4[8:1],{8}1/5-8[8:1],6,
{4}7-2[8:1],{8}3,4-1[8:1],,8,,7,
1,6,2,5,{4}3q8[8:1]/4<7[8:1],3/4,
1-5[8:1]/2-6[8:1],1/2,{8}7/4,6/1,{16}8/7,7x/8x,,6/5,
,4/3,,5/2,{4}5bx/2bx,{8}2/4-8[8:1],3,4/6,6,
7/8xp4[8:1],1,8/2,2,5/4x,6,7/8,6,
{16}3,4,,5/2h[16:3],,,{8}8,7/5-8[8:1],4,5/3,2,
{16}2,1,,1/6h[16:3],,,{8}5,6/8p4[8:1],1,2/8,3,
{16}3,4,,4h[8:1]/7h[8:1],,,{8}7x/4x,6,7/5,6/4<8[16:3],5/3,
2,,,1,2/8,7/3,{16}6,5,,5/2h[16:3],
,,{8}1,3/8,4,{16}5/7h[16:3],,,8,,,{8}6/1,
{16}4/2h[16:3],,,1,,,{8}8/3,{16}6/5,,,3/4,,,{8}1V38[4:1]/5V74[4:1],
{2}8/4,1>4[8:1]/5q1[8:1],
5x>4-1[8:1]/1x<8-5[8:1],{8}2-5[8:1],2,8-4[8:1],8,
,1b,,,{4}1-5[8:1],1b,
{8}7,8,5,4,8h[8:3],,,4,
{4}5,1bw5[8:1],{2}1b,
{4}8<5[4:1],5pp4[4:1],4,{8}3qq4[4:1],3,
,6,,8,{4}1,{8}5,8h[8:1],
,1x,,6bqq1b[8:3]/2bqq5b[8:3],,,,,,4,
5,3,{4}6-3[8:1],6/2-7[8:1],
2/5-8[8:1],5/1-4[8:1],1/6-3[8:1],6/2-7[8:1],
2/5-8[8:1],5/1-4[8:1],1/6-3[8:1],6/1>4[8:1],
1<6[8:1],1-5[8:1],,7-5[8:1],
7-3[8:1],7,{6}7,{12}7,6,,6,
,,1,2,,8,{6}2,{12}2,3,,3,
,,8,7,,1,{6}7,{12}7,6,,6,
,,1,2,,,{4}8b,{12}3,,4,
5h[6:1],4,3,2h[6:1],6,7,{2}8b/1b,
8,{4}6,{12}3,,5,
{24}3,4,{12}3,,{4}2,(179){2}Ch[8:1],
{4},,,,,C/D3,
{2}B1/A7,
,,E6/D6/B4/A4/B5/A5/D5/E4/D4/E5f,
(188){6}2/7,{12}2,4,,1,
{6}8,{12}7,5,,8,{6}1,{12}2,4,,1,
{6}8,{12}7,5,,8,{4}2-4[8:1],7-5[8:1],
1>3[8:1],8<6[8:1],1-5[8:1],8-4[8:1],
1,3/8pp8[0.3192##0.282],(200)4/8<3[16:5],3,
2,6/1qq1[0.3##0.2714],(210)5/1>6[16:5],6,
7,8/3,(226)2q7[4:1],7p2[4:1],
2>6[4:1],6>3[4:1],2,7,
{2}5<1[0.531##0.252]/1>5[0.531##0.252],(231)5bV31[0.5195##0.2598]/1bV75[0.5195##0.2598],
5bq1[0.5195##0.2571]/1bq5[0.5195##0.2571],{4}5b/1b,{8}A5/A1,B5/B1,
{2}Cf,{4}7/3,5/1,
{8}2,2,8,8,{4}8/4,2/6,
{8}4<8[0.5195##0.2571]/8>4[0.5195##0.2571],7/3,6/2,5/1,{2}4bV28[0.5195##0.2597]/8bV64[0.5195##0.2597],
4bq8[0.5195##0.2571]/8bq4[0.5195##0.2571],{4}4b/8b,{8}A4/A8,B4/B8,
{2}Cf,{4}1/8-4[0.5195##0.1299],8/7,
8/1,2-6[0.5195##0.1299],{6}1,{12}1,2,,,{4}7/8,
8/1,1/2,3/2,
8/1h[4:1],{12}3,1,,,,,,,,{4}1/8h[4:1],
{12}6,8,,,,,{4}6V84[0.5195##0.2571]/3V15[0.5195##0.2571],
8/1,6/3,{32},,,,,,,,,,,,,,,8-4[0.5195##0.1299]/1-5[0.5195##0.1299],
,,,,,,,5/4,,,,,,,,8/1,,,,,,,,,,,,5pp8[0.5195##0.387]/4qq1[0.5195##0.387],,,,7/2,
,,,,,,,5/4,,,,4/5,,,,,,,,,,,,,,,,,,,,8-5[0.5195##0.1299]/1-4[0.5195##0.1299],
,,,,,,,6/3,,,,,,,,8/1,,,,,,,,,,,,7/3,,,,7/3,
,,,,,,,5pp8[0.2674##0.8591]/1pp4[0.2674##0.8591],,,,5/1,(220){8},,,,,,,,,,(160)5h[8:1]/4h[8:1],
,,,,,(148)5/4,
,(160)3/6,,2b/7b<3[16:9]*<6-8v1-3[16:9],
{4},,,{16},{32},(165)5<8[2:1],,,,,,,,2,
,,,,,,,2,,,,,,,,3,,,,4,,5,(178),4>1[4:1],,,,5,
,,,5,,,,5,,6,,7,,,,,{8}8xh[4:1],5b,{32}2b,,,(166),,7,,,{8}7,
{16}3,4,,2,1,2,{8}1,6,3,6,
{16}2,1,2,8,2,8,2,7,2,7,{8}1-4[8:1],{4}8-5[8:1],
{16},,1,7,1,7,2,7,2,7,3,7,3,{32}7,(170),{8}4,
{16}6,5,7,4,7,4,8,3,{8}8,2,{32}1,,,(173),{8}7,
{16}7,6,,6,{8}5,3/4,3/2,3/4,{32},,,(176),{8}2,
{16}2,3,,3,{8}4,6/5,6/7,6/5,{32},,,(180),{8}1-5[8:1],
,7-3[8:1],,6-1[8:1],6,8,{16}8,(190),{8}6/1,
{16}7,8,,8,{8}7,6/1,6/1,{16}7,8,{8}7,8h[8:3],
7-4[8:1],7,7,3,{16}3,4,,,{4}2h[2:1],
{8}8-4[8:1],8,8,3,{16}3,5,,,{8}6,4h[8:3],
7-4[8:1],7,7,1,{16}1,8,,,{8}7,8>3[4:1],
,3qq5[8:3],,5,,6,,8/1,
,7,5,5/6,2,4,{4}3/4,
{8}8/1,7,8/1,2,6,4/5,,6bpp4b[8:3]/3bqq5b[8:3],
,,,,,,,6/1>3[8:1],
,7/1-4[8:1],,6/1-5[8:1],,7/1,8,3,
{4}8<4[4:1],{8}3,2,1,8,{4}8>3[4:1],
{8}7,6,5,4,6xh[8:1],{24}1b,2,3,{8}6xh[8:1],{24}2b,3,4,
{4}7,{8}8,1,2,3,{4}4/5pp5[4:1]*qq5[4:1],
{8},,,,1,2,8,1-5[8:1],
1,1,7,4,6,3,5,7/3-6[8:1],
,3/7-2[8:1],,7/5,4,3,2,7qq4[8:3],
7,8,8,1,2,3q6[8:3],6,6,
7,7,,,,5b/4b,6b/3b,7b/2b,
,8h[8:1],{16}7,7x,,,{8}1,2,3,4,
5,6,{16}7,7x,,,{8}8,8b/1b,5b/4b,7b/2b,
,1h[8:1],{16}2,2x,,,{8}8,7,{16}6,6x,,,{8}5,
7,{16}1,1x,,,,2b/3b,,,{8}4b/5b,7b/2b,
,8h[8:1],{16}7,7x,,,{8}8,7-2[2:1]/3-6[2:1],,,,,,,,5,
6/4,7V15[8:1]/3V15[8:1],
,,,2V84[8:1]/6V84[8:1],,,,5bx-1[8:1]/4bx-8[8:1],
,5b<4[8:3]/4b>5[8:3],,5b/4b,,,,7,
,1,,1,,2,{24},2,,{8}3,
{24},3,,{8}4,{24},4,,,,,,6,,{8}4,{24},4,,{8}5-1[8:1],
{24},5,,{8}4-8[8:1],,,,6,{24},6,,{8}4,
{24},4,,{8}5,{24},5,,,,,,,,{8}4-2[8:1],,5b-7[8:1],
,,{4}4b-1[8:1],{8},5b-8[8:1],,1b,
,3,5,4b>1[8:1],,,,8,
1,2,3,5b/4b,,6,7,8b<1[2:1]/1b>8[2:1],
,,,,,,,,,8/2,
,1/7,,8/2,{4}8/2,
{8}6/1,6/1,8<2[8:3]/3<1[8:3],3/8,,,,,,8/1,
,6/3,,8/1,{4}8/1,
{8}3/6,3/6,4x/5x,E8/B8/B1/E1/B7,E8/B8/B1/E1/B7,B1/E1/B8/B2/E2,{4}B1/E1/B8/B2/E2,
{8},8-6[8:1]/1-5[8:1],,1-3[8:1]/8-4[8:1],,8-6[8:1]/1-5[8:1],,1-3[8:1]/8-4[8:1],
,8-6[8:1]/1-5[8:1],,1-3[8:1]/8-4[8:1],,8<1[2:1]/1>8[2:1],,,,,,,,,,6x/B2/B3,
{4}6xh[4:1]/B2/B3,{8}1b,7-2[8:1],7,2,,8v3[8:1],
,,6,6,5,4v7[8:1],{4}2,
{8},1,1,2,3,4,{4}5bv8[8:1]*v2[8:1],
{2}5b,{8}1/7,1/7,1/7,2,
{4}1,8bv5[8:1]/2bv5[8:1],8b/2b,6/4,
{8}2,1,4,5,1b/8b,1b/8b,1b/8b,7/8,
6,7/8,1,8/7,1,7,3,8,
8,4,4,6,{16}2,3,,,{4}4/5,
{8}6,6,2,2,{16}8,1,,,,,{8}7,
7,3,3,5,{16}5,4,,,{8}5,6,
7,8,1,5,4,3,2,1/8-4[8:1],
,8x/7,,1/8-4[8:1],,8x/7,{4}7,
{8}5/6,3,2/4h[4:1],2,A1/E2/A2,A1/E2/A2,3,2-5[8:1],
,5,{4}6-1[8:1],5,3-6[8:1],
7,{8}8,8<5[8:1],,8/3,,2,
1>4[8:1],8,7,6,5<8[8:1],4,{4}3>8[8:1],
7<4[8:1],{8}2,1>4[8:1],,8,7,6,
5,4<7[8:1],3,2,1,8>3[8:1],7,6,
5,4<7[8:1],3,1>4[8:1],,5,6,7>2[4:1],
,2<7[4:1],,3,3,4,{4}5-1[8:1],
{8}8,7,{4}6-1[8:1],{8}2,3,4,5-1[8:1],
,,{4}7bh[8:3],,{16},{32},(188){64}1x,E1,{8}B8,
{64}7x,E7,{32}B6,{64},,,,,,,,,,,,2x,E2,{32}B1,{64},,,,,,,,,,,,6x,E6,{32}B5,{64},,,,,,,,,,,,1x,E1,{32}B8,{1},{16},{64}3x,
E4,{32}B4,,,,7x>2[4:1],
,,,,,,,2x<7[4:1],,,,,,,,,{16}4,{32},,,,,,,3,,,{16}5,
(138){4}2x<7[4:1],7<4[4:1],4>1[4:1],1p3[4:1],
3p5[4:1],5p7[4:1],{2}7p3[8:1],
{8}8/7<4[8:1],3/4p7[16:1],,,1/2>5[8:1],6/5q2[16:1],,,8xp3[8:1]/7x<4[8:1],
3>8[16:1]/4p7[16:1],,,1xq6[8:1]/2x>5[8:1],6<1[16:1]/5q2[16:1],,,5x/7x>2[8:1],
4,{12}3,3,{24},4x/2x<7[8:1],,,5,5,,,{12}6,6h[8:1],{24},8,
,,,{8}3/4,{12}5,5,{24},4/7,,,,{8}1/2,8/3,7/4,
6<1[16:1],5,2q6[16:1],4,7p3[16:1],8,2,8,
4/2,7,{12}8/1,8/1,{24},6/3,,,4,5,,,{4}7b/2b,
{8}1>5[0.2174##0.2174],7,6<2[0.2174##0.213],4,5,{16}6,7/5,,,{8}7-4[0.2174##0.1087],
8-3[0.2174##0.1087],6-1[0.2174##0.1087],5-2[0.213##0.1087],7p4[0.2174##0.3608],{6}1h[24:5],{24},,,,1,2/8,,,{8}8-4[0.2174##0.1087],
8>3[0.2174##0.1043],8<5[0.213##0.1087],8,1-5[0.2174##0.1087],1<6[0.2174##0.1043],1>4[0.213##0.1087],1,
5-8[0.2174##0.1087],5-2[0.2174##0.1043],5<4[0.213##0.4348],5,,,2/8-4[8:1],1,
{4}8/7,{16}6,6,5,5,{4}4/7,{8}7/1-5[8:1],8,
{4}1/2,{16}3,3,4,4,{4}5/2,{8}3/8-4[8:1],1,
8/6h[8:3],{16},,,,3,2,,,{8}7,2,6,
8h[8:3],{16},,,,5,4,,,,7,8,5,4,8,
{2}1b,6h[4:1],
{64}E1,B8,{32}B7,{4},{16},,,{64}E7,B6,{32}B5,{64},,,,,,,,E3,B3,{32}B4,{64},,,,,,,,E1,B1,{32}B2,{4},{16},,,{64}E4,
B4,{32}B5,,,,,,,{8}6h[16:3],{64},,,,,,,,,,,,,,,,E2,
B1,{32}B8,{4},{16},,,{64}B7,B6,{32}E6,{64},,,,,,,,E4,B4,{32}B5,{64},,,,,,,,E2,B2,{32}B3,,,,,,,,,,,{4}1h[4:1],
3h[4:1],5h[4:1],
{2}7h[16:23],{4}E2,{8}B3,B4,
,E7,{16}B5,B4,,B1,,,{8}7h[8:1],5h[8:1],4h[8:1],
{2}2h[2:1],{4}7h[4:1],{8}3,4`5,
{24},,,,,,,,,,,,E8,E2,,E6,B5,B4,{4}E4,
(140)7-1[4:1],1-3[4:1],3-5[0.4286##0.4286],5-7[0.4286##0.3904],
(146)7-1[4:1],1,{8}3,3,{4}4/1-6[0.411##0.3494],
(158)6-3[4:1],3-8[4:1],8-5[0.3759##0.3798],5-2[0.3798##0.3357],
(168)2-7[4:1],7,{8}4,4,{4}2/6<1[0.3572##0.3384],
(172)1>4[4:1],4<7[4:1],7>2[0.3453##0.3453],{8}2,3,
(184){4}3>8[4:1],8<5[4:1],5>2[4:1],8>4[4:1],
4x<8[4:1],8>4[4:1],4<8[0.3228##0.326],{12}1,2,3,
(196){4}4>8[4:1],8<4[0.303##0.3061],4>8[0.3062##0.2449],(218){12}7,6,5,
(234){4}4<8[4:1],8>4[4:1],4<8[4:1],{12}1,2,3,
{4}4,6,{8}6,{16}2b,1,8,7,6,5,
4,3,2,1,{24}8,7,6,5,4,3,{12}7,8,7,8,7,8,
7b,7b,,(210){4},,,(222)7<4[8:1],
{8}4,3h[4:1],,5,6,6,
{4}6/5,8/7,1V35[4:1],{8}5,7,
1,,,7,,7,{4}1q5[4:1],
5q1[4:1],1>5[4:1],5<1[4:1],1w5[4:1],
,,8<5[4:1],5-1[4:1],
1>4[4:1],4-8[4:1],8,1,
7/2,5-8[8:1]/4-1[8:1],{8},,5,6,
{4}5-3[8:1],5-7[8:1],{2}5-1[8:1],
{8}3,4,2,3-7[8:1],{2}6-1[8:1],
{8}6,5,7,6-2[8:1],{2}3-8[8:1],
{8}3,4,2,3-8[8:1],{2}6-3[8:1],
{8}6,5,7,6-2[8:1],{2}2-6[8:1],
{8}4,3,2,3-8[8:1],{2}7-4[8:1],
{8}5,6,7,6-1[8:1],{2}2-5[8:1],
{8}7,6,8,7>2[6:1],1>4[6:1],3<6[6:1],,,{4}1-6[8:1],
8-3[8:1],2-5[8:1],7-4[8:1],
{8}2,1,,7,{4}8-4[8:1],8,
{8}1,2,,8,{4}7,8<5[8:1]/1>4[8:1],
{8}8/1,,,5,4,5,2,8-5[8:1],
,8,{4}4h[4:1],{8}8b,,,2>5[8:1],
1,,,7>2[8:1],6,,,4<7[8:1],
3,,,1>4[8:1],{4}8,{8}7,2,
5,{16}3,4,{8}3,8,{4}1,{8}5,6,
6,7,7,8,4b,4,2b,2,
{4}1p8[2:1],{8},,,,7,7,
{2}7p3[4:1],2q6[4:1],
{4}8V26[8:3],{8},,,,3,8,
{2}3>5[2:1],5>2[4:1],
{4}8,1-3[8:1],1-5[8:1],1-7[8:1],
1-5[8:1],1-3[8:1],1-5[8:1],1<2[0.2703##0.8795],
{8},,,(205),,,,,{4}8-4[8:1],
{8}8b,{16}1,(200),{8}6,2,7,3b,
{4}8<4[8:1],{8}3,2,,8w4[8:1],,8,
,,,8,3,7,2,6b,
{4}1>5[8:1],{8}6,7,,8,7,6h[24:11],
{6}1b,3b,{3}1b,{24},,,,,{8}2,
8-4[8:1],8,2-5[8:1],2,7-3[8:1],7,1-5[8:1],1,
,,3,5,1,6,2,7,
3h[8:3],,,7h[8:7],{2}1b-4[8:1],
{8}1b-5[8:1],,,7,6,5,{4}4,
2V48[8:1],8,{8}7,6,{4}5/4,
{8}2,{16}7,8,{8}7,1,2,{16}4,3,{8}4,1,
{4}8-4[8:1],8<6[8:1],8,{8}4,5,
6,7/5,3,4/2,{2}8/1,
{6}7,{12}7,6,,6,{8}5,4,{4}3,
{6}2,{12}2,3,,3,{4}4,8b,
{6}6,{12}6,4,,4,{6}1,1-5[8:1],{24},,,,,,,{8}4/3,
4/3,4/3,7/8,7/8,7/8,7/8,
1/6,{16}3,4,{8}3>8[8:1],3,6v1[8:1],6,{4}4,
{8}8/3,{16}6,5,{8}6<1[8:1],6,3v8[8:1],3,{4}5,
{8}1/6,{16}3,4,{8}3>8[8:1],3,6v1[8:1],6,2>5[8:1],2,
7>2[8:1],7,4<7[8:1],4,8,8,6/1,2,
1q5[8:1],8,6/1,7,8p4[8:1],1,8/3,2,
1q5[8:1],8,1/7>2[8:1],6,{4}7/3,{8}4,5,
6,6-1[8:1]/5-2[8:1],{4}7/4,{8},4/7pp2[8:5],6,5,
4,3,3,4,5,6,{4}7/2,
1/2,3>8[8:1]/8<5[8:1],{8},,,5/6,
,,{4}7<4[8:1]/4>1[8:1],{8},,,8/7,
,6,5,4/3,2,1,1/2,3,
4,5/6,7,8,1/2,4/3,{4}5/6,
8/7,6/5>2[8:1],{8},,,1/2,
,,{4}3/4<7[8:1],{8},,,7h[4:1],
,3,4,5,6,5,4,3,
2,1,{4}6/2<7[8:1],4-8[8:1],2b,
{8}8/1-6[8:1],7,,7,1/8-3[8:1],2,,2,
{4}5/3,5/7,7/1,1/3,
{8}8/1-6[8:1],7,,7,1/8-3[8:1],2,,2,
{2}8-6[8:1]/1-3[8:1],7-5[8:1]/2-4[8:1],
{8}1/2-7[8:1],8,,8,2/1-4[8:1],3,,3,
{4}6/4,6/8,8/2,4/2,
{8}4/7,4/7,,5/2,{4}5/2,{8}5/4,5/4,
4/5,{16}6,7,8,1,2,3,{4}4b/5b,7-2[8:1]/6-3[8:1],
6/7,7-3[8:1]/6-2[8:1],7/6,7p3[8:1]/6z2[8:1],
7/6,7s3[8:1]/6s2[8:1],7/6,{8}8,7,
{4}1/6<8[8:1],{8}4,3,{4}5/2>4[8:1],8h[4:1],
{8}1,2/3,4/5,6/7,{4}8-4[8:1]/1-5[8:1],8b/1b,
3>1[8:1],3,8h[4:1],{8}5,6,
,1s5[8:1],8,1,,1,2-5[8:1],1,
{4}2b,{8}7-4[8:1],8,{4}7b,{8}1,8h[8:3],
,,{4}6h[4:1],5b,7x/1x-5[8:1],
{8}8/1,7-3[8:1],6,7/5,4,3x,2-6[8:1],1,
2/8-4[8:1],7,8/1w5[8:1],2,{4}1,7/3,
{8}8/3,4,5/7,6,5/2,3,4/8,7h[4:1],
{16},,8,1,{8}2,8,B6/B4/B5f,,,2/4,
{4}2/4h[4:1],{8}5,5h[4:1],,7,,6/2,
{4}6/2,{8}8,8,7/3,7/3,2,2,
{4}1,8-3[8:1]/7-4[8:1],8b/7b,2-5[8:1]/1-6[8:1],
2b/1b,1-4[8:1]/8-5[8:1],1b/8b,6/3,
B7/B6/B2/B3/Cf,2-7[8:1]/6-3[8:1],6/2,{8}8>3[4:1],8,
,7,6,5,{2}4,
{4}4/8,7-2[8:1]/3-6[8:1],3/7,{8}1<6[4:1],1,
,4,4,5,{2}5,
{8}8-4[8:1],8,2-5[8:1],2,{4}2,{8}7-4[8:1],7,
1-5[8:1],1,{4}1,{8}7-2[8:1],7,3-6[8:1],3,
{4}1-6[8:1],{8}1,2-5[8:1],,2,,7b,
{16},,1,8,{8}1,5,{4}4,{8}7/2,8/1,
{16}7h[16:3],,,8,{8}7,6/1,5/2,{16}3,4,{8}3,2/5,
{16}5/2h[16:3],,,1,{8}2,8/3,{4}3/8-4[8:1],{8}1,2,
{16}3h[16:3],,,4,{8}3,5/2,5/2,{16}6,5,{8}6,7/4,
{16}6h[16:3],,,5,{8}6,7/4,3/8<5[8:1],1,2,3,
{4}4>1[8:1],{16}8b,,,7,{8}7x-4[8:1],4,3,2-5[8:1],
,6b,,7,6h[8:1],8,3h[8:1],1,
2/7,8,2,{16}1,8,1,8,1,8,1,8,1,8,
{24}7b/2b,,,,,,,,,,,Ch[8:3],{4},,{16},{48},2-5[8:1],
,,1,,,{24}8,{48},,,,,,,,,,,,,,,,7-4[8:1],,,8,,,{24}1,{48},,,,,,,,,,,,,,,,2-7[8:1],
,,3,,,{24}4,{48},,,,,,,,,,,,,,,,6-1[8:1],,,5,,,{24}4,,,,,,,,,{12}2b-5[8:1],
{24},,,,2b,,,8b,,,,,,6b,,,4b,,,1b-4-7q3-6-1b[4:5],
{4},,,{16},{48},{6}1bx,
{12},Cf,{24},,,,,,,,,,,,,2,,,{6}8,
{12},1-5-1[4:1],{24},,,,5,,,7-3-7[4:1],,,,,,3,,,,,,2,
{48},,,(190),1h[8:3],,,,,,,,,,,,,,,,,,{24}8b-4[8:1],{4},,{16},{64},{192},{96}5b-1[0.3903##0.1942],
(170),{16},,,{64},,{96},{24}8b,,,7-3[0.353##0.2004],,,,,,,(154){4}1b-5[0.3857##0.1824],
(158){1}Ch[16:19],
{4},,(116){64},E3,,,,,,,,,,,,,,,,5/E4,{4},{16},,,{64},,,5/E4,
{4},{16},{64},,,E2,,,,,,,,5/E4,,,,,,,,B2,,,,,,,,B7,
,,,,,,,E3,,,,B3,,,,5/B4,{4},{16},{64},,,B1,,,,B2,,,,5/B3,,,,,,,,E2,,,,,,,,E4,
,,,,,,,E8,,,,,,,,4/E6,{4},{16},{64},,,B8,,,,B7,,,,4/B6,,,,,,,,E8,,,,,,,,E6,
,,,,,,,E2,,,,,,,,5/E4,{4},{16},{64},,,B6,,,,B5,,,,4,,,,,,,,,,,,B8,,,,B7,
,,,,,,,B3,,,,B4,,,,5,{4},{16},,{64},,,E3,,,,5,,,,B4,,,,,,,,C,,,,,,,,B8,
,,,B7,,,,,,,,4,,,,,,,,E6,,,,,,,,E3,,,,,,,,B8,,,,B7,,,,1,,,,,,,,,,,,,,,,E7,
,,,,,,,E4,,,,,,,,5,,,,,,,,E3,,,,,,,,E2,,,,,,,,E1,,,,,,,,5,,,,,,,,B1,,,,B2,,,,,,,,B6,
,,,B5,,,,,,,(106){32},4,{64},,,,,3h[8:1],,,,,,,,2h[8:1],,,,,,,,1h[#0.2762451],,,,,,,(110),8h[8:7],,,,,,,,E6,,,,,,,,E5,
,,,,,,,E4,{4},,{16},{64},,,7h[8:7],,,,,,,,E4,,,,,,,,,,,,,,,,E2,
,,,,,,,,,,,,,,,E1,,,,,,,,B2,,,,,,,,E4,,,,,,,,6h[8:7],,,,,,,,,,,,C,,,,,,,,,,,,E1,
{4},{16},,,{64},,,C,,,,,,,,5h[64:49],,,,,,,,B4,,,,B3,,,,,,,,,,,,E2,
,,,,,,,E1,{4},{16},{64},,,B1,,,,B2,,,,5h[64:17]/B3,{4},{16},{64},,,B2,
,,,B3,,,,5h[4:1]/B4,{4},{16},{64},,,B1,,,,,,,,5h[4:1],,,,,,,,B5,,,,,,,,B4,
,,,,,,,B8,,,,B1,,,,5h[64:17]/B2,{4},{16},{64},,,B2,,,,B3,,,,5h[64:91]/B4,{4},{16},{64},,,E1,
,,,,,,,E5,,,,,,,,E3,,,,,,,,E7,,,,,,,,C,,,,,,,,4h[64:37],{4},,{16},,{64},,,E7,
,,,,,,,,{32}E3,,,,C,{64},,,,,,,5/B4,{4},{16},,{64},B2,
,,,,,,,,{32}5/B4,,,,B3,{64},,,,,,,6/B5,,,,,,,,B3,{128},,,,,,,B4,,,,,,,,,{16}7/B5,
{32},,,,,,,,,,,E8,{64},,,,,,,4/B5,,,,,,,,B7,,,,,,,,3/B4,,,,,,,,,{16}B6,B5,
{64}1/B4,{4},{16},,{32},{64}B2,,,,B3,,,,7/B4,{4},{16},,{64},B7,{128},,,,,,,B6,
,,,,,,,,{32}2/B5,{64},,,,,,,,,,,B4,,,,B5,,,,,,,,,E8/E2,,,,,,,,,4-1[0.582##0.3]/5-8[0.582##0.3],,,,,,,,,,,,,,,(104){8},
{32},,,,,8b/1b,,,,,,,,5-8[16:1]/1-4[16:1],,,,8/4,,,,5/1,{64},,,,,,,,,3,,,,7,,,,,,,,6h[8:1],
,,,,,,,2,,,,,,,,,,,,7,,,,5,,,,,,,,,,,,2,,,,4,,,,,,,,,,,,,,,,7-5[16:1]/4-8[16:1],,,,,,,,8/5,
,,,,,,,7/4,,,,,,,,,,,,,,,{8}2-4[16:1]/5-1[16:1],1/4,2/5,,6h[1:1],
3,1>3[16:1],{16},1,{8}1-4[16:1],1,1-5[16:1],{16},1,{8}1>3[16:1],
6b/1-4[16:1],6/1-5[16:1],6/1>3[16:1],7/1-4[0.5365##0.1384],{64}8/1-5[0.5365##0.1384],,,,,,,6/1>3[16:1],,,,,,,,6/1-4[16:1],,,,,,,,7/1-5[16:1],,,,,,,,1/8<6[16:1],
,,,,,,,1b/8-5[16:1],,,,,,,,3/8-4[16:1],,,,,,,,3/8<6[16:1],,,,,,,,3/8-5[16:1],,,,,,,,3/8-4[0.5365##0.1385],,,,,,,,3/8-5[0.5538##0.1385],,,,,,,{32}3<8[0.5942##1.4365]/8<2[0.5942##1.4365],{128},,,,,,,,,,,,,3/8,,,,,,,,,,,,,,,,3b/8b,
{4},,{16},,,{64},,,{32}6b<4[8:3]/3b>5[8:3],,,{16}7/2,
{64},8/1,,,,,{32}6b/3b,,,,,,,,,,,,,,,{16}1h[#0.4327393],{32},7,,,(130){4}8b,
(128)1q6[8:1]/2>5[8:1],2/1,{16}8/7,,,1/6,,,{8}2/5,
1>4[8:1],8,1pp6[4:1],8,{2}1,
{4}3q8[8:1]/4<7[8:1],4/3,{16}2/1,,,8/3,,,{8}4/7,
{4}3>7[4:1],{8}7>3[4:1],6,{2}5h[4:1],
{8}2b,3,4,5,6,7,8/1,8/1,
7b,6,5,4,3,2,1/8,8/1,
{64},1b,{256},,,,,,,,,,,8,,,,,,,,,,,,,,,{128}1,{256},,,,,,,,,,,,,8,,,,,,,,,,,,,,,2,,,,,,,,,,,,,,,7,,,,,,,,,,,,,,,{128}2,{256},,,,,,,,,,,,,7,,,,,,,,,,,,,,,{64}3,{256},,,,,,,,,,,6,,,,,,,,,,,,,,,{128}3,{256},,,,,,,,,,,,,6,,,,,,,,,,,,,,,{32}4,{256},,,,,,,5,,,,,,,,,,,,,,,{128}4,{256},,,,,,,,,,,,,5,,,,,,,,,,,,,,,{64}4q5[0.4359##0.4078],,,,,,,,,,,,,,,{16}5<4[0.4079##0.4688],
{32},,,,,8-4[8:1],,,,,,,,8b,{64},,,,,,,,,,,,(136),1,,,,1,,,,,,,,8-4[8:1],
,,,,,,,,,,,3,,,,3,,,,,,,,,,,,,,,,,,,{8}6,7,{16}8,8,
,1-5[8:1],,,6,6,,,,,{8}7,8,{16}1,8,
,7,,7h[16:11],,,{8}8b,4b,1b,5b,2,
{16}8,1,,,{8}7/2,8-5[8:1]/1-4[8:1],,1b/8b,{16},,3,3,
,8-4[8:1],,,1,1,,,,,{8}3,2,{16}6,6,
,1-5[8:1],,,8,8,,,,,{8}6,3,{16}5,4h[4:1],
,7,,8,,,{8}1b-4[16:1],8b-5[16:1],1b,8b,4,
{16}6,8,,,{8}3h[8:1],8b,5,4,5,2,
{16}8-4[8:1],1,,,{4}8/7b,{8}4,5,4,7,
{16}1-5[8:1],8,,,{4}1/2b,{8}8,1,8,3,
{16}5-1[8:1],4,,,{4}5/6b,{8},7<2[16:3],8,7,
1,1h[16:3],{16},8,,,,,{8}7,7,8V62[4:1],
,2V48[4:1],,8V63[4:1],,3V16[4:1],,6V42[4:1],
,2V86[4:1],,6V48[4:1],,8,{32},,,,6,,,7,
,,,1,{8}8,{32},,,5,,,,5,{8}6,{32}3,,,3,{8}4,1<6[8:1],
4,5,4,1>4[8:1],5,6,5,(144)7,
1,7,4,7,8,7,5,7,
8,7,4,7,1,7,5,7,
2,{16}8,1,8,1,7,2,7,2,6,3,{4}1b/8b,
(185)7-3[8:1],7/8b,1-5[8:1],{16}1/8b,,,6,
6,,,3,{8}3,7,{4}1b/8-4[8:1],{16}1b/8,,,3,
3,,,6,{8}6,2,{4}8b/1-5[8:1],1/8b,
{8}7<4[8:1],8,{4}7,{8}2>5[8:1],1,{4}2,
{8}7,1,{4}1/6-1[8:1],6/3-7[8:1],{8}3/8<5[0.321##0.2307],2,
(190)4<7[16:3],2,8<5[16:3],2,4<7[16:3],2,8<5[16:3],2,
4>1[8:1],1<6[8:1],,,,,8,{16}7,6,
{8}7,{16}6,5,{8}6,8,{4}1,{8}8,{16}2,3,
{8}1,{16}3,4,{8}2,1,(196){4}8,6bpp4[4:1]/3bqq5[4:1],
{8}6/3,,,8b-4[8:1]/1b-5[8:1],,8/1,,6bpp4[4:1]/3bqq5[4:1],
{4}3b/6b,,,(198)1-5[8:1],
{8}1,8-4[8:1],,8,,1>5[8:1],,1,
{4}7-3[8:1],1b,,8w4[8:1],
8,{8}6,6,2,2,,1v4[8:1],
1,1v6[8:1],,,,,{4}7-4[8:1],
{8}7,8-3[8:1],,8,,5-8[8:1],,5,
{4}2h[4:1],4b,4/3,2>5[8:1]/6<1[8:1],
{2}6/2q8[8:1],{4}3,(260){16}8/7,,,1/2,
,,,5/4,,,{8}2b/7b,,,,,(200){4}8-4[8:1]/1-5[8:1],
8/1,{8}6,6V84[4:1],5,6,
,5,,5/4,,2,2V48[4:1],1,
{4}2,{8}5<8[8:1],4,{4}5,1>4[8:1],
{8}1b/5h[4:1],{16},,,,4,5,{4}4,5b/4b,
{8}2-5[8:1],2,8,8,7-4[8:1],7,1,1<6[16:3],
7<1[8:3],5q1[4:1],{4}5x,,8,
7,{16}8,,,6,{8}5,8b,8b,8b,
2,2,{16}8b/1b,,,2,{8}7,1,{4}1b/8b,
{2}1h[2:1],5h[2:1],
3h[2:1],{4}7h[2:1],8b,
1h[12:5],{12}2,,8,{4}7h[4:1],{12}6,,1,
{4}2,7/1,8/6,{8}1-5[8:1],2,
{4}3/1,{8}4,5,1,{16}7,8,{8}7,1,
7,2,{4}5b-8[8:1]/4b-1[8:1],{8},,7/2,7/2,
{16}6,3,5,4,7,1,,7,8,6,,1,{8}2,8<5[8:1],
1>4[8:1],8-4[8:1],1-5[8:1],8,1b,,,3,
{4}2b<7[8:1],{8}2,6>3[8:1],,6,{4}1>4[8:1],
{8}1,5-8[8:1],,5,{4}1-4[8:1]*-5[8:1],1b,
6V84[4:1]/3V15[4:1],6b/3b,{8},2-5[8:1]/1-6[8:1],3/8,2b/1b,
,7-4[8:1]/8-3[8:1],6/1,7b/8b,,2,2,1,
1,,,7/5,6,2/4,3-7[8:1],{16}7-5[8:1],6x,
,,,,,,{8}8,3,4,1,8,
{4}5-1[8:1],5/4b,{8}8/2,1-7[8:1],{4}7-3[8:1],
{8},,,6h[2:1],1,7,5,3,
3/6,5/1,6/3,4/8,3/6,5/1,6/3,4/8h[8:5],
4,3,2,1,{4}1-5[8:1],1/8b,
{8}6/3,4/8,3/6,5/1,6/3,4/8,3/6,5/1h[8:5],
5,6,7,8,{4}8-4[8:1],8/1b,
{24}1b/6x,5x,{12}4x,{24}1b/6x,5x,{12}4x,{24}1b/6x,5x,{12}4x,{24},,,{8}2,7,1,
{24}8b/3x,4x,{12}5x,{24}8b/3x,4x,{12}5x,{24}8b/3x,4x,{12}5x,{24},,,{8}6,2,8,
{4}4b/6b,6b/8b,8b/2b,4b/2b,
(154){2}4b/6b,(160){8}6,4,5,(150)3,
4>1[8:1],5,6,7>2[8:1],,7/5,,4,
{4}5-8[8:1],2,{8}3,5,4,6,
5<8[8:1],4,3,2<7[8:1],,2/4,{64},,,,,,,5h[64:11],,,,,,,,,,,{32}4,
,,,,,,,,,,,,,6,,,,5,,,,4,,,,3,,,,2v5[4:1],
,,,,,,,5v8[4:1],,,,,,,,8,,,,,,,,5,,,,2,,,,2,
,,,8,,,,8,,,,6,,,,6,,5>1[0.4##1.0866],,,,,,8,{64},,,,(90),Ch[32:7],{4},{16},{64},,,E1,
{192},,,,,,,,,,{48}E5,{96},,,,,{32}E3,{96},,,,{12}E7,{48},,,{16}C,{32},,,E6/E2,,,,E8/E4,{64},,,,,,E6,E5,
(172){48},E4,{4},{16},{64},,,{192},{32}2,,,,4,,,,6,,,(199),8,,,,1,,,{8}7x-4[8:1],
1,7x,8x-3[8:1],6,8x,7x,1x,
7/2-4[8:1],2x,2x/7-5[8:1],7x,2/7x,,,3,
{4}4/2h[4:1],{8}8,5/7h[4:1],,1,7,3h[4:1],
{16},,5,4,{8}6,2/7,,,,,8/1,
{16}7,6,,3,{8}4,1/2,3/8,{4}1/2,
{8}1/8,{16}2,3,,6,{8}5,6/1,8/7,6/1,7,
{4}8<5[8:1],{8}4,3h[4:1],,4,{4}4,
4b/3b,1/2,8/7,6/5,
{6}3,{12}3,4,,4,{6}2,{12}2,5,,5,
{6}3,{12}3,4-1[8:1],,4,{2}3-8[8:1],
{16}6,5,6,5,6-3[8:1],5,6-1[8:1],5,{2}6-2[8:1],
{16}3,4,3,4,3,4,{8}3-7[8:1],{4}7b-3[8:1],5-1[8:1],
{8}5x/6x-8[8:1],6,4-2[8:1],4,{4}5-1[8:1],{8}3v2[8:1],3,
6v7[8:1],6,5-1[8:1],5,{16}8x,7,{8}6,3,4,
1,{16}6,5,{8}6,1,8,{16}3,4,{8}3,8,
{4}2h[2:1],{8}1v4[8:1],1,{2}1v6[8:1],
2-4[8:1]/5-1[8:1],{8}5/8,6,4/1,3,
{2}7q5[8:1]/4>8[8:1],{8}4/1x,3,5/8,6,
{4}5/3,{8}1/3,2,1/3,3,3/5,{16}6h[8:3],8,
{8}1,3,3,6,6,4,5,4,
8b,{16}2x,1,{8}2,8,{16}3,4,{8}3,1b,{16}6x,5,
{8}7-5[8:1],4,7-1[8:1],4,7-3[8:1],4,7,1b,
5x,{16}8,7,{8}8,6,{16}3,4,{8}3,1b,2x,
{16}2h[16:1],3,,2,,8,7,6,{8}5/2,4/1,7-4[8:1]/4-1[8:1],8/5,
{4}4b/7b,{8}5,3,6,4,7,8bs4[8:1]/5bz1[8:1],
{16},,,,,,6,5,{8}7,3,1,2,
4,6,8,3,,1b-5[8:1],,1b,
,6,4bh[2:1],8,7b,8,{4}8b,
{8}5/7,6,2/4,3,{4}8/1,{8}1/2,3/8,
,7,8/6,2,{4}1/3,{8}5,3,
{4}7x>3[4:1],{8}3xv5[4:1],4,{4}5b,{8}1x,1h[4:1],
8x,2,1,8x,8,{16}1,8,{8}1x,7,
{4}2>5[8:1]/1q6[8:1],2/1,{16}7/8,,,1/6,,,{8}2/5,
1>4[8:1],8,1pp6[4:1],7,1,8,7,7,
{4}8b>3[8:1],{8}5,4,,8,3,3,
1-6[8:1],1,2-5[8:1],2,{4}7-4[8:1],7/3-8[8:1],
3/6-1[8:1],6/2-5[8:1],2/7-4[8:1],7/3-8[8:1],
3/6-1[8:1],6/2-5[8:1],2/7-4[8:1],7/3,
{8}2-5[8:1],6-1[8:1],2,6,{16}5>3[8:1],,,1,{8}5,8x,
1/2,2,8/7,7,4,5,1,8,
{4}8b/1b,{8}7/2,7/2,,3,2,1<6[0.6##0.1508],
{16}1/6,,,8/2,,,{8}1/3,,4,6,8h[4:1],
,5,3,1h[4:1],,4,6,8>3[0.7767##0.2047],
{16},(170)8/3b,{48},,,,,7/1b,,,,,,,,8/5b,{4},,{16},,{48},(184){16}4h[32:63],
,,,,,,,C,{32},,,,,,,,,,,,,1,
,,,,,,,1,,,,,,,,8,,,,,,,,8,,,,,,,,Ch[32:47],
,,,,,,,,,,,,,,,8,,,,,,,,1,,,,,,,,2h[32:15],
{4},,,{16},,,(186){4}3h[4:1],
4h[4:1],{2}C,
{4}6h[4:1],5h[4:1],{2}C,
{8}1b,8,2,7,3,6,4,5,
{2}7x<4[8:1]/4x>1[8:1],{8}8x/1x,7b/2b,{4}8<3[4:1],
{8}8x/1xh[2:1],,,8,{4}8,8-4[4:1],
4>1[4:1],1-5[4:1],5<8[4:1],8,
1,{8}7v5[4:1]/3v1[4:1],3/7,,,,,{4}5/3,
6/4,5/2,4/7,
4/1h[8:3],{8}5,5,,6/4,{4}6/4,
5/8h[8:3],{8}4,4,,3/5,{4}5/3>8[4:1],
4,6<1[4:1],5,3h[4:3],
4,2,5-1[16:1],7b,
8h[4:1],{8}1,1h[4:3],,8,,4,
,8,,2,1,8,7/3,6/2,
{4}1h[4:1],{8}8,8h[4:3],,1,,5,
,1,,7,8/4,1,2/6,3/7,
{4}4-8[4:1],8-5[4:1],5-2[4:1],2,
6h[4:1],{8}5,5>3[8:1],,,7,6,
{4}5/4,{8}6/1,6h[8:7]/1s5[8:5],,,,,,,,,{4}3/5,
4/7,
5/6V48[8:3],{8}3,3,,4<8[4:1],,8q1[4:1],
,5,,6,7,8,1,2,
{2}7V15[8:1]/3V15[8:1],2V84[8:1]/6V84[8:1],
{4}6/5-3[8:1],6/5-2[8:1],6/5-1[8:1],6/5<3[2:3],
5,{8}5,5,,4,{4}4,
{8}5,5,,4,{4}4,6/2,
5/1s5[4:5],{8}5,5,,6,{4}6,
{8}7,7,,8,{4}8,6/3,
{8}7,3,{4}4/2,{8}2,6,{4}5/7,
{8}6,2,{4}1/3,{8}3,7,{4}8/6,
{8}6/4,7,8,3/5,2,1,{32},7b/3b,,,,,{16}5b,
,2b/6b,{32},,,3b,,,,,{8}4b,{32},,,,,,,8b/1b,,,,,{8}7b/2b,
{16},6b/3b,{32},,,,,5b/4b,,,,,,,(86){2}3b/6b-8v1-3[1:1],
{6},,,,,1/5-1[12:11],
{1},{16},,{64},,{32}8-5[32:31]/1v4[32:31],
{1},{4},{64},{192},{24}1q8[8:3],
{4},,{16},,,1,
{32},5,{64},,,,,2,,,,,,,6,,,,,,,3,,,,,,,,7,,,,,,,,4,,,,,,,,,,8,
,,,,,,,,,,,,,,,,{32}4v7[16:25],8,4v1[2:3],
E
