&title=ネヴァモア
&artist=sasalasa
&first=1.55
&des=潘潘
&lv_6=13+
&inote_4=
&inote_6=(155)
{16}
45,,,6,5,,7,,,6,,,
35,,,2,4,,3,,5,4,5,,
3,,,6,5,,7,,,6,,,
3/5v6[8:1],,,4v3[8:1],,,,,,,,,
6,,,4,5,,2,,,3,,,
35,,,7,4,,6,,3,5,3,,
24,,,1,,,78,,,6,,,35,,,12,,,47,,6,5,4,,
3h[16:2],,4h[16:2],,2h[16:2],,5h[16:2],,1,,6,,2h[16:2],,5h[16:2],,3h[16:2],,8h[16:2],,4,,7,,5h[16:2],,6h[16:2],,3h[16:2],,8,,7,,6/4>1[8:1],,,,4,,
{24}
8,7,6,5h[24:3],,,7,6,5,4,,,
{16}
6h[16:2],,5h[16:2],,7h[16:2],,3h[16:2],,8,,2,,7h[16:2],,4h[16:2],,5h[16:2],,2h[16:2],,6,,3,,5h[16:2],,4h[16:2],,6h[16:2],,1,,2,,3/8<5[8:1],,,,8,,
{24}
4,3,2,1h[24:3],,,3,2,1,8,,,
{16}
3-5[10:1],,,5,3,,6-2[8:1],,,2,6,,1-7[10:1],,,7,1,,6,,4-6[10:1],5,4,,
7-3[8:1],,,3,7,,2-8[10:1],,,8,2,,7<4[16:3],,,4pp7[12:4],,,3,,2,,,,
1-3[10:1],,,6,1,,7-5[10:1],,,5,7,,4-8[8:1],,,8,4,,7,,
6-8[10:1],1,6,,2-4[10:1],,,2,,,5-1[8:1],,,6,,,7q3[16:4]*p3[16:4],,,,,,,,,,,,
1b>4[8:1]/5b,,,,16,,7,,8<5[16:2],,5v2[16:2],,8,,4,,3v4[8:1],,,,
1,,6,,7-5[10:1],,8,,3-1[10:1]/7,,2,,8-4[8:1]/3,,7,,4,,3V16[16:4],,2V86[16:2],,,,,,,,
4b-6[10:1],,3,,2v4[10:1],,1,,
5b-3[10:1],,6,,7V51[16:3],,8,,
2b,,3,,4V28[12:2],,8,,8v3[12:2],,,,6,,5V71[12:2],,,,
4,,2v5[10:1],,,,7h[12:3],,,,4,3,2,1,
8b>3[8:1]/4b,,,,
58,,6,,7<5[10:1],,5p1[16:2],,7,,4,,3,,,,
82,,7,,1-5[8:1]/6,,8,,6-8[10:1],,7,,4v1[8:1],,3,,8<1[12:4],,7,,6h[12:3],,,,,,,,
6-4[10:1],,,4v7[8:1],,,3,,2h[16:2],,,,2v5[8:1],,,5-3[10:1],,,6,,,,
7,,2h[16:2]/8h[16:2],,,,38,,47,,56,,45,,34,,25,,16,,27,,38,,12,,
3h[64:1],4,1h[32:1],1,{16}7,5,6h[64:1],4,5,3,4,2,5h[64:1],3,7,4,6,2,7h[64:1],1,8,{24}2,3,4,{16}7,5h[64:1],6,3,7,2,1,4h[64:1],6,2,7,1,8,3h[64:1],5,2,8,4,7,{24}4h[64:1],3,2,{16}6,1,7,2,
6h[64:1],5,8h[32:1],8,{16}2,4,3h[64:1],5,4,6,5,7,4h[64:1],6,2,5,3,7,2h[64:1],8,1,{24}7,6,5,{16}2,4h[64:1],3,6,2,7,8,5h[64:1],4,7,2,8,1,6h[64:1],5,7,1,4,2,{24}5h[64:1],6,7,{16}3,8,1,7,
5-3[10:1],,,2,,,1-7[10:1],,,6,,,4-2[10:1],,,2,,,8-6[10:1],,,6,,,
5-3[10:1],,,7,5,,8-6[10:1],,,2,8,,4-2[10:1],,,6,4,,7-5[10:1],,,1,7,,
4-2[10:1],,3,5,4,,7-5[10:1],,8,1,7,,3-1[10:1],,2,8,3,,6-4[10:1],,7,8,6,,
3-1[10:1],7,2,8,,,
7-5[10:1],8,7,8,,,
1,2,3-1[10:1],46,,,
5,6,7-5[10:1],8,,,
3qq8[12:23]*<7[12:12],,,,,,,,,,,,,,,,,,,,,,,,,,,,,,7,,6,,5,,,,8,,{24}7,6,5,4,,,7,6,5,4,,,
{16}8pp3[12:23]*<4[12:12],,,,,,,,,,,,,,,,,,,,,,,,,,,,,,7,,6,,5,,,,2h[64:1],,3h[64:1],,4h[64:1],,,,,,,,,,,,,,
4h[16:6],,2?-4[8.2#180:1],,,,,,2?-4[8.9#175:1]*?-4[8.9#175:1],,,,5h[16:6],,1?-5[12#120:1],,,,,,
{48}1?-5[13.57#113:1]*?-5[13.57#113:1],2?-4[10.82#139:1],
{16},,,6h[16:6],,8?-6[22#64:1],,,,,
{48}8?-6[26.75#52:1]*?-6[26.75#52:1],2?-4[13.3#111:1]*?-4[13.3#111:1],1?-5[18.06#84:1],
{16},,,,7h[16:6],,,,,,,,{48}8?-6[61#22:1],1?-5[28.64#52:1]*?-5[28.64#52:1],2?-4[18.63#81:1],{16},,,8h[16:6],,,,,,,{48},1?-5[58.2#26:1],2?-4[27.83#53:1]*?-4[27.83#53:1],{16},,,,
1h[16:6],,,,,,,{48},2?-4[58.4#26:1],,{16},,,,
2h[16:6],,,,,,,,,,,,3h[16:6],,,,,,,,,,,,
{200}4h[16:2],{16}6h[16:2],,,,7h[16:2],,4-2[10:1],,6h[16:2],,,,{16}5h[16:2],,,,2h[16:2],,5-1[8:1],,3h[16:2],,,,4h[16:2],,,,1h[16:2],,6-8[10:1],,4h[16:2],,,,2h[16:2],,,,1h[16:2],,7h[16:4],,8h[16:2],,,,6/4h[16:2],,,7,3h[16:2],,8,,1/2h[16:2],,,,7h[16:2]/8,,,1,6h[16:2],,2,,5h[16:2],,3h[16:4],,4h[16:2],,,,
25,,16,,78,,18,,12,,38,,26,,15,,51,26,37,48,
{16}5b-2[8:1]/1bv4[8:1],,,,15,,,,8-4[8:1],,5-7[8:1],,8v3[8:1],,5,,8,,,,4,,2,,6/3>1[10:1],,74,,6pp1[12:3]/3,,5,,2>4[10:1],,3,,2,,8,,
{32}
7,6,5,3,2,1,8,7,{16}4,,,,
3,1,2v4[8:1],,8,,5,,6,8,7v4[8:1],,1,,3,,2,8,1-4[8:1],,7,,5,,
6pp1[12:3],,,,3,,2>5[16:2],,,,8,,6v1[12:1],,,,46,,3,2,8,7,6,5,
1b-4[8:1]/4b,,,,1/6-3[8:1],,7,,8-5[8:1],,1,,2-7[8:1],,3,,4-1[8:1],,,,8-5[8:1],,7,,3-8[8:1],,2,,6-3[8:1],,7,,1-6[8:1],,2,,4-1[8:1],,5,,8>3[8:1]*<5[8:1],,,,,,,,
4v7[16:2],,,7V13[16:3],,,6,,5V74[16:3],,,,4-8[8:1],,,3,,,2,,,,5,,7h[16:2]/4h[16:2],,,,
38,,57,,4-6[10:1]/6,,35,,2/4-7[8:1],,8,,4/2V83[16:4],,3,,27,,4,,5z1[12:28]*s1[12:28],,,,,,,,,,,,,,,,,,,,,,,,,,,,,,,,,,,,,,,,,,,,,,,,
7h[16:2],,4h[16:2],,5h[16:2],,3h[16:2],,6h[16:2],,4h[16:2],,8h[16:2],,3h[16:2],,
5h[16:2],,1h[16:2],,6h[16:2],,4h[16:2],,5h[16:2],,3h[16:2],,4h[16:2],,2h[16:2],,8h[16:2],,1h[16:2],,6,,4,,{24}8,7,6,5q4[12:10],,,4,3,2,1v4[12:7],
