&title=Payload (feat. 初音ミク & 水槽)
&artist=#596ab8 / 雄之助 / 初音ミク / 水槽
&first=2.27
&lv_5=13+
&des_5=mmfc
&inote_5=
(165){32}1b/8b,7/2,6/3,4h[32:5]/5h[32:101],,,,,,,,,,,,,{8}3,4h[8:3],,,,,{4}3,
{8}3,4h[8:3],,,,,{4}2,
{8}3,4h,,3,
{4}4h,{8}4-2[8:1],3,5-1[8:1]*-7[8:1],6,,,{4}3-5[8:1]/6-2[8:1],
3/6,{8}3/8h[8:17],4h[8:3],,,,,{4}3,
{8}3,4h[8:3],,,,,{4}2,
{8}3,4h[8:3],,7,
{4}6-8v5-1[8:3],1,3,2>5b[8:1],
{32}6b/2b,7,8,1,,,,,{16}E6,E7,E8,E1,E2,E3,E4,E5,{8}C,7h[4:1],
{4}6,{8}7x-4[8:1],1,{4}8,{8}8/7-4[8:1],1,
{4}8>3[4:1],3<6[4:1],6<1[4:1],1>3[8:1],
{8}5-7[8:1],6,4-2[8:1],3,{4}8-4[8:1],8,
{32}2bx,3,{16}4h[16:5],{8}7x,7,7,8h[8:3],6x,6,6,
{32}4bx,3,{16}2h[16:5],{8}8x,8,8,6h[8:3],7x,7,7,
{32}1bx,2,{16}3h[16:5],{8}5x,5,5,6h[8:3],4x,4,4,
,1>4[8:1],,7,{4}1V75[8:1]*p5[8:1],1,
{1}4bpp4b[1:1]/3bqq4b[1:1],
{8},,,,7h[8:1],5,2h[8:1],4,
8h[8:1],6,1h[8:1],3,{4}7-5[4:1],5v2[4:1],
{8}2-4v7[2:1],,,8,,1,,2,
{4}3/5,{16}6,4,5,3,{4}4h[4:1],{16}3,5,4,6,
{4}5h[4:1],{16}6,5,7,5,{4}8h[4:1],{16}1,4,2,4,
{8}3h[4:1],{16},,,,5,4,{8}5,6/3,1/8,7/2,
3v5[8:1]/6v4[8:1],4-1-3[4:1]/5-8-6[4:1],{4}6/3,,Cf,
{8}3x/6x,{16}1,8,{8}1>3[8:1],2x/7x,1-4[8:1],{16}4,4,{8}1v6-8[4:1],{16}5,5,
{8}1,,,5/1>4b[8:1],{32},,,,1/5V31[4:1],6,7,8,,,,,{8}5x/8x,
7,6,,1>4[8:1]/4<7[8:1],,1/4,,8-4b[8:1]/5-2b[8:1],
7,5/8/Cf,,1-5b[8:1]/4-7b[8:1],2,4/1/Cf,,,1>3[8:1],
{16}8,8,{8}1-5[8:1],7,{4}6-8[8:1]/1-3[8:1],1v8[4:1]/6-4[8:1],
{8}6,,,1,{32}6x/2V41[4:1],7x,{16}8x,{8}3,2/6-8[8:1],8-5[8:1],
6,,,4-7[8:1]/3v8[8:1],,4/3,,1bh[4:1]/8v5-7b[8:3],
,,{4}3,{8}1bw5b[8:1],8,{4}1b,
{8}5-2[8:1],7z3[4:1],5,7,,,8/2>4[8:1],6,
2,8,2-5[8:1],5-3[16:1],{16}2,6h,7h,8h,{8}1x-4[8:1],4x-7[8:1],
,,,8-4[8:1],,4-8[8:1],,2h[8:5],
,7,6,5,{4}4-1[8:1]*-7[8:1],4,
{8}8-4[8:1],2s6[4:1],8,2,,,4/6<8[8:1],2,
6,4,6-1[8:1],1-7[16:1],{16}6,2h,3h,4h,{8}5x<8[8:1],8x>3[8:1],
,,,5-1[8:1],,1-5[8:1],,3h[8:5],
,6,7,8,{4}1-5[8:1],1/8,
{8}7b,{16}3,4,{8}3,4/5,2b,{16}5,4,{8}5,5/6,
8b,{16}6,5,{8}6,{16}2x,2x,{8}6b,{16}3,4,{8}3,2/6,
7<4[8:1],6,{32}4x/7x,3,2,1,,,,,{8}1-3[8:1],4-6[8:1],1x,4x,
4xqq4[4:1],8x,4xpp4b[4:1],8xz4[4:1],,,,,2,
4/5,2,5/6,{32}2bx,3,{16}4,6x,5x,{8}7x,6/5,
3b,{16}5,4,{8}5,6/5,2b,{16}6,5,{8}6,5/4,
3b,{16}5,4,{8}5,6/3,8b,{16}4,5,{8}4,3/4,
6-1[8:1],7,4-7[8:1],3,2-5[8:1]*-6[8:1],1,{4}Cf,
{32}4bx/5bx,3x/6x,7x/2x,8h[32:53]/1h,,,,,{4}1-6[8:1],1,{8}6,7,
1,2h[8:1],,B2,E4,C,E5,5xh[8:9],
8V61[4:1],,,,,,,6,
{4}6V85[4:1],{8}2v7-1[4:1],2,,4-8[8:1],{4}4,
,7-4[8:1]/3-1[8:1],3/7,{8}4,2,
5,3h[8:5],{4}C,{8},,Ch[1:1],2x,
{4}1xv6-8[8:3],1,{32},,,,,,,,,,,,,,,,1x,
2,{16}3h[32:29],{32},,,,,,,,,,,,5x,6,{16}7h[32:13],{32},,,,,,,,,,,,2b-5[8:1]/6b-1[8:1],
1b/5b,{16}8b/4b,,,{4}2/6,{8}1<6[8:1]/5>2[8:1],3,{4}1/5,
5h[4:1]/1-7[8:1],1,{8}5-7[8:1]/8-2[8:1],4,{4}8/5,
4h[4:1]/8-2[8:1],8,{8}1-7[8:1]/4-2[8:1],5,{4}4/1,
1v4[4:1],4-2v5[8:3],{8}6-8b[8:1],5,{4}6,
,8v3[4:1],3V17[4:1],7v4[4:1],
4V68[4:1],8v3-1[8:3],{2}4h[4:1],
{8}8,4,1/7,6/5,{16}2,1,3,8,2v7-1-5b[2:1],1,4,7,
,,,,{4}5bx-3[8:1],,2<7b[8:1],
{32}2b/6b,5,{16}4h[16:19],{32},,,,,,,,,,,,7b,8b,{16}1b,{32},,,,,,,,,,8b,1b,
{4}2b,{32}1b,2b,{16}3b,{32},,,,5b>2b[8:1],6,7,8,,,,,{4}5bV71[8:1],
5b,{16}2,4,3,5,{8}4x,4<7[8:1],4,4x,
4>1[8:1],4,4x,4,{4}4xh[8:1],{16}4,5,3,6,
{32}4x,E4,E3,E2,E1,E8,E7,E6,{4}E5,{32}1bx/8bh[8:1],2b,{16}3b,{32},,,,,,,,2bx/8bh[8:1],3b,{16}4b,
{32},,,,,,,,3bx/8bh[8:1],4b,{16}5b,,,{8}8h[8:1],6,1h[8:1],3,
2/6,3/7,4/8,1-5[8:1]/5-1[8:1],,1/5,,7-2[8:1]/3-6[8:1],
,3/7,,8/4,{16}3,3,4x,2x,,7x,{8}5x,
{32}8b/4b,7/3,6/2,1/5h[8:3],,,,,,,,,,,,,2b,3,{16}4xh[32:9],{32},,,,,,,,1b,2,{16}3xh[32:9],
{32},,,,,,,,7b,6,{16}5xh[32:5],{32},,,,8b>3b[8:1],7,{16}6xh[32:5],,,{4}8bV64[8:1],
8b,{16}1,7,8,6,{8}1x,1<6[8:1],1,1x,
1>4[8:1],1,1x,1,{4}1xh[8:1],{8}5-1[8:1],1,
{4}5b,{16}2,4,3,5,4,6,5,7,{8}1x/2x,8/4,
5/7,8<5[8:1]/4>1[8:1],,8/4,,7b/3b,,4,
8,2h[8:1],5,8-3[8:1]/4-7[8:1],,4b/8b,,3-6[8:1]/7-2[8:1],
,3b/7b,,8h[4:1],6s2[4:1],4,{4}7-3[8:1],
{1}Cf/7<4qq5[16:21],
{32}A6,B6,{4},,,{16},,,{1}2>5pp4b[16:21],
{4}A3/B3,,,2,
1h[4:1],{16}A5,D6,{8}A6,{4}3x/7h[4:1],{16}A4,D4,{8}A3,
{4}5x/2h[4:1],{16}A6,D7,{8}A7,{4}2x/8h[4:1],{16}A3,D3,{8}A2,
{4}7x/1h[4:1],{8}6,{16}3,4,{8}3,2/5,7,{16}4,5,
{8}4,3/6,4-1[8:1]/5-8[8:1],1v4-2[4:1]/8v5-7[4:1],{2}4/5,
{8}6x/3x,{16}8,1,{8}8<6[8:1],7x/2x,8-5[8:1],{16}5,5,{8}8v3-1[4:1],{16}4,4,
{8}8,,,4/8<5b[8:1],{32},,,,8/4xV62-8[8:3],3,2,1,,,,,{8}1x/4x,
2,3,,8<5[8:1]/5>2[8:1],,8/5,,1-5b[8:1]/4-7b[8:1],
2,4/1/Cf,,8-4b[8:1]/5-2b[8:1],7,5/8/Cf,,,5<7[8:1],
{16}4,4,{8}5-8[8:1],3,{4}5-1[8:1]/2-4[8:1],5V37[4:1]/2-8[8:1],
{8}2,,,1,{32}2x/6<1-5b[4:1],3x,{16}4x,{8}7,2x>4[8:1],4x-8[8:1],
2,,,8q4[8:1]/7p3[8:1],,8/7,,2bh[4:1]/6v1-7b[8:3],
,,{4}5,{8}4bw8b[8:1],3,{4}4b,
{8}1-5[8:1],7s3b[4:1],1,7,,,5/3>1[8:1],7,
3,5,3-8[8:1],8-2[16:1],{16}3,7h,6h,5h,{8}4x-2[8:1],2xV86[4:1],
,,,4<8[4:1],,8V24[4:1],,4qq1[8:3],
,8,{4}6-8[8:1],6-4[8:1],6,
{8}4-8[8:1],2s6b[4:1],4,2,,,1/7x<5[8:1],3,
7,1,7-4[8:1],4-6[16:1],{16}7,3h,2h,1h,{8}8x<5[8:1],5x>2[8:1],
,,,8V24b[4:1],,4<8b[4:1],,8qq4b[8:3],
,3,{4}2-8b[8:1],2-4b[8:1],2,
5x-1[0##6.1818],{16}6,5,7,3,4,2,6,4,{4}8h[8:1],
{32}2bx,3x,,,8bx,7x,,,3bx,4x,,,7bx,6x,,,,,,,{8}E4f/B3/B4/A4/D4/A3,{32},,,,,,,,8x,
7bx,,,2x,3bx,,,7x,6bx,,,3x,4bx,,,,,,,{8}E7f/B7/A7/D7/A6/B6,,5h[4:1],
,,,4,5-1b[8:1],4,{4}5b/Cf,
E
