&title=RESISTER
&artist=ASCA
&first=0
&des=Re: AdamaS
&lv_5=14
&lv_7=藏
&inote_5=(183)
{1},
{4}2bz6[8:12]/6bz2[8:12],,,,,,,,
{4}3>5[8:8]/8z4[8:8],,,,,,4-8[8:1]`5-1[8:1],,
{4}8b^3[8:1]/1b^6[8:1],,
{8}45,36,7-4[32:3]/2-5[32:3],18,2b/7b,,,,,,,,
{16}1,8,2,7,3qq5[16:5],6,4,,8bx,,,,,,,,
{8}7-5[32:3],8,2,1-3[32:3],4,6,8-6[32:3],1,4,2-4[32:3],5,7,1-5[8:1],3-1[32:3],1,3,
{8}6-4[32:3],2-6[8:1],6,2,7,8-4[8:1]*-3[8:1],1x/7x,8bx,,1-5[8:1],6^1b[8:1],1^4b[8:1],6b,,,,
{8}6h[8:1],,5h[8:1],,,B6,B7,,3,3,6qq5[32:12],6,,,,,
{8}2h[8:1],,4h[8:1],,,B2,E2,,6,6,2v3-5[32:14],2,,,,,
{8}7h[8:1],,5h[8:1],,,E8,B8,,2,2,8qq1[32:14],8,,,,,
{8}2h[8:1],,6h[8:1],,,B2/E2,B5/E6,,7,7,1qq7[32:10]*^4[32:10],1,,,,,
{8}7/5-3[8:1],,7,,6/2-4[8:1],,6,6,
{8}5/4-2[8:1],,5,,4-6[8:1]/1-3[8:1],,4x/1x,,
{8}4/5-7[8:1],,4,,3/8-5[8:1],,3,3,
{8}2/4-8[8:1],,2,,1-5[8:1]/2-5[8:1],,2x/1x,,
{8}4hx[8:1]/6hx[8:1],,2h[8:1]/3h[8:1],,7-4[8:1]/8h[8:1],,1,2,
{8}5hx[8:1]/3hx[8:1],,7h[8:1]/6h[8:1],,2v4[8:1]/1h[8:1],,8,7,
{8}6x-1[8:1]/5x-1[8:1],,65,,3x-8[8:1]/4x-8[8:1],,3>4[16:5]/4,,
{8}7hx[16:6],,,
{16}3x,2x,6bxqq4b[16:3]/1x^4b[16:3],,,,,,,,
{8}5hx[8:3],,3,3v1[8:1],,3,8bx,,
{8}6h[8:3]/2x,,3,4v1[8:1],,4,8bx,,
{8}7h[8:3]/1x,,3,5-1[8:1],,5,8bx,,
{8}8h[8:3],1,2,3,4x/5x,6x/3x,1b/8b,,
{8}6x/5x,6,6/8x,6,6/4x,6,6/1x,7x/2,
{8}3x/8x,3,3/4x,3,3/7x,3,3/5x,4x/6,
{8}8/7x,1,52,6,37,2,61,7,
{16}4,8,4,8,4,8,4,8,3,7,3,7,3,7,1x,8x,2b<4[4:1]/7b-3[8:1],,2b/7b,,
{4},1xw5[8:1],,
{16}7b-3[8:1]/3b,,,,78,,1,,2V84[16:3],,8bx,,,,6,,5-1[8:1],,,,57,,8^5[8:1],,,,81,,,,2,,
{16}3-5[8:1],,7-3[8:1],,3>5[16:5],,7bx,,,,5x-1[8:1],,,,,,
{16}2x,3,4,5,1x,8,7,6,4-8b[8:1],3,2,1,8bx,,,,
{8}2-5[8:1],2,6-2[8:1],6,1V74[16:3],1,,,
{8}6^3[8:1],6,2^7[8:1],2,5-7[8:1],5-2[32:3],,,
{4}8x-3[8:1]/1x-6[8:1],81,
{16}4,7,3,6,2,5,1,4,8b-4[16:1]*-4[16:1],,,6b<4[32:5]*<4[32:5],,,
{24}3bhx[4:1],,,,,,5,6,7,8b,,,,,,
{16}2b-6[8:1]/6b,,,,21,,8,,7V15[16:3],,1b,,,,3,,4bq8[8:1],,,,43,,2bpp3[16:3],,,,25,,,,6,,
{16}7-5[8:1],,3-7[8:1],,7>4[16:4],,3,,4xqq5[16:5]*-8[8:1],,,,,,,,
{16}1x,8,7,6,4x,3,2,1,5-1b[8:1],6,7,8,1b/5x,,,,
{8}7^4[8:1],7,3^8[8:1],3,6-1[8:1]*-2b[8:1],6,,,
{8}4-1[8:1],4,8-5[8:1],8,3p6[8:1]*^8b[8:1],3,,,
{4}1^4[16:3]/5p1b[16:3],1x<5[4:1]/5x,5x>1[4:1],1x<5[4:1]*p4b[4:1],,,
{16}2/4x,1,8,7,6,5,4,3,
{8}2bV48[16:3],,2x/4x,6V82[16:3],,5x/6x,3-5[8:1],,31,8,7,6x/5x>1[16:3],6,7,8,,
{8}8V24[16:3]/1,,8x/7x,6V84[16:3],,6x/5x,3^8[8:1],,43,5,17,2,83,7,15,2,
{8}3b-5[32:3],6,3,7b-3[32:3],8,7,1b^4[32:3],5b^6^7^8^1^2^3^4b[16:5],
{2}A1/E1/B1f/E2,
{16},,2,2,1x/8b,,,,
{8}78,1-5[8:1]/6,,1/6V47[16:3],,4x,2-4[32:3],,6-8[32:3]/2-8[32:3],,6-4[32:3]/2-4[32:3],,6x/2x-6[8:1],,1bx/2bx,,
{8}75,8-4[8:1]/2,,8/3V52[16:3],,5x,7^5[32:3],,3b/7b^1[32:3],,3bp7b[8:1]/7bp3b[8:1],,3b^6b[8:1]/7b^2b[8:1],,,,
{32}2x/7b,3,4,5,6,7,8,1,2,3,4,5,6,7,8,1,2,3,4,5,6,7,8,1,2,3,4,5,6,7,8,1,
{32}2,3,4,5,6,7,8,1,2,3,4,5,6,7,8,1,2,3,4,5,6,7,8,1,2,3,4,5,6,7,8,1,
{16}2b,,5,4,6,,7b/87b,,3,5,2,,8b/1b,,6,4,8,,1b/2b,,3,5,1,7,
{8}8b-4[32:3]`2b-5[32:3]*-5[8:1],8b/2b,8b/2b,,
{1},
E
&inote_7=(183)
{1},
{4}2bpp5[8:12]`6bpp1[8:12],,,,,,,,
{4}4>5[8:8]`8z4[8:8],,,,,,4-8[8:1]/5-1[8:1],,
{4}8^3[8:1]/1^6[8:1],,
{8}45,36,7qq5[8:1]/2pp4[8:1],18,2b/7b,,,,,,,,
{16}4,5,4,5,4pp3>6[16:7],5,4,,4bx/3bx,,,,,,,,
{8}1x^4[8:1],,6-8[8:1]/1,,6/2^5[8:1],,2/7-1[8:1],,7/3^6[8:1],,3/8-4[8:1],,8/3-8[8:1]*-7[8:1],,3,,
{8}5^8[8:1]/1^4[8:1],,51,,73,6x-1[8:1]/2x-5[8:1],5x/1x,6x/2x,,2-6[8:1],7^8^1^2^3^4^5[32:9],2,7b,,,,
{8}6h[8:1],,5h[8:1],,,B6,B7,,3,3,6^4[32:10],6,,,,,
{8}2h[8:1],,4h[8:1],,,B2,E2,,6,6,2^4[32:11],2,,,,,
{8}7h[8:1],,5h[8:1],,,E8,B8,,2,2,7^4[32:12],7,,,,,
{8}1h[8:1],,5h[8:1],,,B2/E2,B5/E6,,7,7,1q6[32:11]*^4[32:11],1,,,,,
{8}7/5-3[8:1],,7,,6/2-4[8:1],,6,6,
{8}5/4-2[8:1],,5,,4/1-3[8:1],,4,,
{8}2/4-6[8:1],,2,,3/7-5[8:1],,3,3,
{8}4/5x-8[8:1],,3,,1/8x-5[8:1],,2,,
{8}4/3-1[8:1],,5,,7/8-4[8:1],,7,6,
{8}5/4-2[8:1],,6,,8/1-5[8:1],,7,6,
{8}6-1[8:1]/5-3[8:1],,65,,6-8[8:1]/5-2[8:1],,65,,
{8}8/1h[16:6],,,
{16}8x,7x,6bxqq4b[32:5]/1x^4[32:5],,,,,,,,
{8}5hbx[8:3],,3,3v1[8:1],,3,8x,,
{8}6hbx[8:3]/2x,,3,4v1[8:1],,4,8x,,
{8}7hbx[8:3]/1x,,3,5-1[8:1],,5,8bx,,
{8}8h[8:3],1,2,3,45,63,7b/2b,,
{8}87,6,54,3,12,3,45,6,
{8}78,6,71,6,72,5,73,5,21,3,28,3,27,4,26,4,
{16}5,4,5,4,6,3,6,3,7,2,7,2,8,1,8,1,2b<4[4:1]/7b-3[8:1],,2b/7b,,
{4},1w5[8:1],,
{16}7b-3[8:1]/3b,,,,78,,1,,2-8[32:3],,8-4[8:1],,,,6,,5-1[8:1],,,,57,,8^5[8:1],,,,82,,,,34,,
6x-4[8:1],,2-6[8:1],,6<4[16:5],,2,,,,4-8[8:1],,,,,,
{16}7x,6,5,4,8x,1,2,3,5x-1b[8:1],6,7,8,1,,,,
{8}7-4[8:1],7,2-6[8:1],2,8V64[32:5]*V24[32:5],8,,,
{8}6^3[8:1],6,2^7[8:1],2,5^7[8:1]*^2[8:1],5,,,
{4}8bx-3[8:1]/1bx-6[8:1],8b/1b,
{16}4,5,4,5,3,6,2,7,1bx-5[16:1],,,5bx-1[16:1],,,
{24}1bx>8b[16:4],,,,,,,,,,,,,,,
{16}2b-6[8:1]/6b,,,,21,,8,,7-1[32:3],,1-5[8:1],,,,3,,4xq8[8:1],,,,42,,1q5[8:1],,,,17,,,,6x/5x,,
2x-5[8:1],,6x-2[8:1],,2<4[16:4],,6,,4-8[8:1]*-2[8:1],,,,,,,,
{16}1x,2,3,4,1x,8,7,6,4x-8b[8:1],3,2,1,8,,,,
{8}2^5[8:1],2,7p3[8:1],7,1<5b[32:5]*>5b[32:5],1,,,
{8}6-3[8:1],6,2-7[8:1],2,5-2b[8:1]*-8[8:1],5,,,
{4}1x-4b[8:1]/6x-3[8:1],16,2x-4[8:1]/5x-1b[8:1],25,5x^2b[8:1]/1x^6[8:1],51,
{16}1,5,2,6,3,7,4,8,
{8}1bV73[16:3]/5bx,,13,5xV31[16:3],,65,7-3[8:1],,87,1,2,3/4<8[16:3],3x,2x,1x,,
{8}8V24[16:3]/1,,8x/7x,6V84[16:3],,65,3^8[8:1],,43,5,1/7x,2,8/3x,7,1/5x,2,
{8}3bx-5[32:3],6,3,7bx-3[32:3],8,7,1b-5[32:3],5b<4b[16:5],
{2}1b`Cf,
{16},,81,81,7b/2b,,,,
{8}78,1-5[8:1]/6,,1/6V47[16:3],,4,2-4[32:3],,6/2-6[32:3],,6-8[32:3]/2-8[32:3],,6x-4[32:3]/2x-4[32:3],,2x/6x,,
{8}21,8-4[8:1]/3,,8/3V52[16:3],,5,7-5[32:3],,3/7-1[32:3],,3v8[8:1]/7v4[8:1],,3b^6[8:1]/7b^2[8:1],,,,
{32}1/Cf,2,3,4,5,6,7,8,1,2,3,4,5,6,7,8,1,2,3,4,5,6,7,8,1,2,3,4,5,6,7,8,
{32}1b,2x,3x,4x,5x,6x,7x,8x,1b,2x,3x,4x,5x,6x,7x,8x,1b,2x,3x,4x,5x,6x,7x,8x,1b,2x,3x,4x,5,6x,7x,8x,
{16}1b,,3,4,2,,8b/7b,,6,4,8,,1b/2b,,2,5,3,6,4,7,3,8,2,,
{8}1b-5[8:1]*-5[8:1]`7b-4[8:1],1b/7b,1b/7b,,
{1},
