&title=Routing
&artist=Camellia
&first=-0.49
&lv_5=14+
&des_5=NekkiOwO
&inote_5=
(144){4},,,,{32}4b/6b,
7/3,8/2,1,,,,,{16}2-5[8:1],1,,1,{8}2,7,{16}6/7-3[8:1],,,7/8,
,,,,5,4>8[8:1],6,5,,4/6,,,{4}4-8[8:1],
4b/2,{16}7-4[8:1],8,,8,{8}7,2,{16}4/3h[16:3],,,2,
,8,{32},8,,,{8}8,{24}5,4,6,{4}5p1[8:1]*q1[8:1],5,
{32}2b/8b,3/7,4/6,5,,,,,{16}3-7[8:1],4,,4,{8}3,5,{16}6/5,8,,2/4h[16:3],
,,{8}3,{16}4,3,5,2,,6/5,,,{4}8/1h[8:1],
{32}1b/7b,6/2,5/3,4,,,,,{16}4v7[8:1],5,3,4,,,{8}1,{16}2,2/6,,7h[16:5]/1h[16:5],
{32},,,,,,,,,,,,,,1,2,{16}3,5,7,3,{4}1s5[8:1]*-5[8:1],
1,{16}6-1[8:1],5,,5,{8}6,{16}3,4,2-6[8:1],1,,1,
{8}2,{32}1,8,{16}7,5-1[8:1],6,4,5,3h[16:3],,,8,,3,8-6[8:1],4,
{8}3h[8:1],8-4[8:1],3h[8:1],8-5[8:1],3h[8:1],8,{16}3,4,2-6[8:1],5,
{8}1,2/6,{16}7,8,7,8,{32}1/5,2,3,4,{8}5,{16}8h[8:1]/1h[8:1],,,8/1h[8:1],
{32},,8,7,6,5,{16}4,2-6[8:1],1,,1,{8}2,7,{16}6<1[8:1],5,,5,
{8}6,5h[16:1],{32}2,3,4,5,6,7,8,1,{16}3-7[8:1],4,2,5-1[8:1],3,,,5,
,,{8}3h[8:1],{16}6pp8[8:1],5,,5,{8}6,4,{16}2pp4[8:1],1,,1,
{8}2,8,{16}5,6,4,7,2<4[16:3],6,3,5,{4}2b,
{8}3/7,4,{16}5<8[8:1],4,,4,{8}5,2,{16}1>4[8:1],8,,8,
{8}1,{32}5,6,7,8,{16}1<5[8:1],5,{8}5,{16}1,,,4h[8:1],,7,,1,
{8}2/8,4,{16}7/8-4[8:1],7,,2,{8}2,3,{16}2/1-5[8:1],2,,7,
{8}7,6,{16}2,1/3,,5,{8}6/4,{16}8,7/1,{32}6,5,4,3,2,1,{16}4b/8b,
{32},,,,,4,5,4,{12}5,1/2,4,7/8,2,6/5,3h[8:3],{96},,,,,,,,,,{32}4,5,
6,7,{16}8,{32},,,,3/7-3[6:1],2,1,8,7,6,5,4,{16}3/7,,,1s5[16:3],8,,,1/5,
,,{8}7h,{16}3-7[8:1],5,4,6-2[8:1],3/5,,,6/4qq7[16:5],,,{8}4/5,
{16},,6,6,{8}6h[8:1],{16}8,8,{8}8h[8:1],{16}2,2,{8}2h[8:1],{16}4,4,
{8}4h[8:1],{16}6,6,{8}6h[8:1],{16}3,3,{8}3h[8:1],{16}5,5,{4}5w1[8:1],
{1}5b,
{8},,,,,7h[8:3],{16},3,,,{8}3,
3/7,{16}6,5,{8}7h[8:1],{16}3,4,{8}2h[8:1],{16}7,8,{8}6h[8:1],
{16}2,1,{8}3h[8:1],7,4/3,{16}1s5[8:1],8,2,7,{4}1,
{8}8/2-6[8:1],1,{16}2/7,6,{8}5,{16}4-8[8:1],3,{8}2,{16}5/4,6,{8}7-4[8:1],
3,7/2-5[8:1],1,2,{16}7p4[4:1],3,5,1,{8}7/4,3,
2h[8:1],4,8h[8:1],4,{16}8-4[8:1],2,7,1,{8}8,6,
{32}7,8,7,8,7,8,,,{8}5/6,{32}2,1,2,1,2,1,,,8,7,6,5,8,7,6,5,1,2,3,4,
{4}5/1-5[8:1],{16}1/4v7[16:1],,,4/3,,,{8}5/4V28[16:3],{16},4/8pp3[16:5]*qq5[16:5],,8,
,,,,,,,,5,4,6,5,{4}8b/7b-4[8:1],
7/2-6[8:1],{16}2/7-1[16:1],,,7/2>4[16:3],,,{8}4v1[16:3],{16},1V35[16:3],,8<1[16:5],
,,{8}8,{16},,,,,,4,5/3,,8,{8}7/1,
{16}5-1[8:1],6/4,,,5/6-2[16:1],,,6/7-3[16:1],,,{8}7/4-8[16:1],{16},4/5,,6,
,,3,5,4,6,5,7,1-6[12:1],4,{8}2,{4}1b/4<7[8:1],
4/8>3[8:1],{16}8/5<8[16:1],,,5/1>4[16:1],,,{8}1/5v8[16:1],{16},5/1v4[16:1],,7h[8:1],
,,,,7,3h,5,8h,6,4h,1,6h,8,3h,5,1h,
{1}4bw8[2.9167##0.2083],
{8},,,,,,,,2h[8:1],
6,{16}4<7[16:1],5,3,4,,1v6[16:1],8,2,{8}1,2pp4[8:1],
8,8/2,{16}6-2[16:1],5,7,6,,8,1,7,2p8[4:1],6,3,4h[16:3],
{8}2b,{16},,,,4/8,5/1,6/2,7/3,,2/4p8[8:1],,5/3,,4/6,
,,{8}6v1[8:1],2/7,6,{16}2,4,3,5,1-5[16:1],4,2,6,
{8}5/1b,7,{16}4-8[16:1],5,3,4,,2-6[16:1],1,3,{8}2/4,3-5[16:1],
2/7h[8:1],3,{16}6>3[16:1],7,5,6,,2,2,1,1q6[4:1],3,4,2,
{8}1,{16},,,,4,4>1[8:1],7,7v4[8:1],,4,,7,{32},,8,7,
6,5,4,3,{8}2/1,4h[8:1],6h[8:1],{16}8q3[4:1],7,1,6,{4}8,
{8}8<5[16:1],7,{16}8/2q5[4:1],2,,6,{8}5-3[16:1],6,7qq1[4:1],1,
7/8,{32}1,2,3,4,{8}5,{32}1,8,7,6,{8}5/1,{32}1/5,2/6,3/7,4/8,{8}1/5-3[8:1],7,
{4}5-2[8:1]/6-2[8:1],5/6-8[8:1],{8}6-4[16:1],2,{16}6/3-8[8:1],,,3,
{8}6v1[8:1],7,6/5>2[8:1],4,5/8<5[8:1],7,{24}8/1-5[8:1],2,3,4,,,{8}1/2v4[8:1],
3,2/7-1[16:1],6,7/3<6[16:1],2,3/1V75[16:3],2,
1v4[8:1],{32}5,4,3,2,{8}1v6[8:1],{32}5,6,7,8,{8}1/2,3,5/6,3/4,
{4}8/7V15[8:1],3-7[16:1],{16}3/8-4[16:1],,,8/1-5[16:1],,,{8}1/6-2[16:1],
{16},6/3-7[16:1],,,3/8-4[16:1],,,8/2-6[16:1],,,{8}2,{16},4/8,,4/8,
3/7,2/6,1/5,8/4,{32}3/7h,6,5,4,3,2,1,8,{48}7h,6,5,4,3,2,1,8,7,6,5,4,{64}3-6[8:1]/7-2[8:1],2/6,5/1,4/8,,,,,,,,,,,,,{4}7b/3b,
{16}8<4[8:1],1,,1,{8}8,3,{16}1/2-6[16:1],8/3,,2/1,
,,8,3,{8}6,{16}5-1[16:1],4,7-4[8:1],5,,,{4}7/3h[8:1],
{32}5b/3b,6/2,7/1,8,,,,,{16}7-4[12:1],8,,8,{8}7,1,{16}3/2-6[16:1],,,2/1,
{48},,,,{12}7,7,7h[8:1],{24},5,6,4,{4}5-1[8:1]*>2[8:1],5,
{32}1b/3b,8/4,7/5,6,,,,,{16}3v8[12:1],4,,4,{8}3,6,{16}3/5-2[16:1],,,5/8,
,7,8,7-3[16:1],1,8,1,7,,1/5,{32},,,,6v1[8:1]/2v5[8:1],3,4,5,6,7,8,1,
{4}2b/6b,{16}7,6,8,4,6,2,7,1-6[8:1]*p7[16:29],{32}8/2,3/7,6/4,5,,,{16}1,
,,,,,,,,{8}8,8,8,8,
8,8,8,8,8,8,8z4[16:3],{32}8,1,8,1,
E
