&title=AciculignosA
&artist=かねこちはる
&first=0
&des=Dororo
&lv_5=14
&inote_5=(148)
{1},
(144)
{48}3qq6[1:1],4h[48:71],5,{16},,,,,,,,,,,,,,,
{16},,,,,,,,5-8[8:1],,,,,,,,
{48}6pp2[1:1],5h[48:71],4,{16},,,,,,,,,,,,,,,
{16},,,,,,,,1b,,,28,,28,,,
(148)
{16}3<1[4:1],,,7,,7,,,5<3[4:1],,,2,,2,,,
{16}4<2[4:1],,,8,,8,,,6q2[8:1],,,4,,4,,,
{16}3<1[4:1],,,7,,7,,,5<3[4:1],,,2,,2,,,
{16}4qq5[4:1],,,8,,8,,,7-3[8:1],,6,3,7,2,,2,
{16}4,,3,3h[8:1],,5,4,6,5,,7,7h[8:1],,8,8,8,
{16}8,,17,,,,8,,1h[8:1]/7h[8:1],,,2h[8:1]/6h[8:1],,,35,,
{16}35,,6,6h[8:1],,4,5,3,4,,2,2h[8:1],,1,1,1,
{16}1,,28,,,,1,,2b/8b,,,3,4,4,5,,
{16}26,,2-5[8:1],1,3,,8h[4:1],,,,2-5[8:1],1,3,,8,,
{16}8,,6,57,,3,24,,1w5[8:1],,,,1,,,,
{16}37,,{64}2h[32:1],8h[256:1],,,{16},6,4,5,3,,3,4,,2,8,2,8h[16:7],
{48}3,4,,{16},,{48}3,4,,{16},,6,,5,5,,7,,5,6,4,
{16}73,,7-4[8:1],5,6,,3h[4:1],,,,7-4[8:1],5,6,,3,,
{16}3,,1,28,,6,57,,3/4h[4:1],,,,{12}5b,5b,5b,
{16}26,,{64}7h[32:1],1h[256:1],,,{16},3,5,4,6,,6,5,,7,3,7,3h[16:7],
{48}1,2,,{16},,{48}1,2,,{16},,7,,5,5,,4,,6,3,7,
{16}2^5[8:1],,,8,2,,1^4[8:1],,,7,1,,8,,6,5,
{16}6-3[8:1],,,8,6,,1pp5[8:3],,,,1,,6,6,,7,
{16}7^4[8:1],,,1,7,,8^5[8:1],,,2,8,,1,,3,4,
{16}3-6[8:1],,,1,3,,8-4[8:1],,,,8,,2,,{24}2,3,4,
{16}5h[8:1]/6h[8:1],,,4h[8:1]/7h[8:1],,,3/8h[16:3],,,7,6,5,,8,7,6,
{16}1>7[3:1]/5,,,,8,,8h[8:3],,,,,,1,1,{24}7,6,5,
{16}4h[8:1]/3h[8:1],,,5h[8:1]/2h[8:1],,,6/1h[16:3],,,2,3,4,,1,2,3,
{16}4h[8:1]/6h[8:1],,,3h[8:1]/7h[8:1],,,2/8-4[8:1],,,,1,,1b,,,,
{16}3<7[2:1],,,,,,,,,,,,,,,,
{16}6>2[2:1],,,,,,,,,,,,,,,,
{16}3<7[2:1],,,,,,,,,,,,,,,,
{16}7<3[2:1]/6^3[2:1],,,,,,,,,,,,,,,,
{16}25,,3,4,,4,3,,7,1,6,2,8,8,,,
{16}74,,6,5,,5,6,,2,8,3,7,1,1,,,
{16}36,,4,5,,5,4,,2,7,1,8,2,2,,,
{16}7,5,6,4,5,,2,4,3,5,4,,7>6[8:7],7,,1,
{16}1h[8:3],,,,,,,,1^7[8:1],,,,,,,,
{16}1b-5[8:1]/5b,,,,7-4[8:1],,7,,2-6[8:1],,2,,8,,8,,
{16}5b/7b^4[8:1],,,,2q6[8:1],,2,,8,,8,,7,5,,5,
{16}8b-4[8:1]/4b,,,,2-5[8:1],,2,,7-3[8:1],,7,,1,,1,,
{16}2b-5[8:1]/8b,,,,25,,7-4[8:1],,,,74,,3,3,5,5,
{16}2b/6b,,1,7,2,7,3,7,4-1[8:1],7,5,7,4,,6,,
{16}25,,3,4,2,4,1,4,2,4,1,4,7,6,5,4,
{16}73,,8,2,7,2,6,2,5-8[8:1],2,4,2,5,,3,,
{16}47,,6,5,8,,3,4,1,,27,,{48}1b/8b,27,36,{16}45,,,
{16}35,,17,,2-6[8:1],4,3,4,2-4[12:1],,5,5,2,7,7,,
{16}5h[8:1]/8h[8:1],,,3h[8:1]/4h[8:1],,,2h[16:3]/8,,,{48}6,5,4,{16}3,,1,1,,5,
{16}64,,82,,7-3[8:1],5,6,5,7-5[12:1],,4,4,7,2,2,,
{16}3h[8:1]/4h[8:1],,,5h[8:1]/8h[8:1],,,2/6h[16:3],,,{48}8,1,2,{16}3,,7,7,,5,
{16}46,,12,,3-7[8:1],5,4,5,3-5[12:1],,8,8,3,6,6,,
{16}4h[8:1]/7h[8:1],,,1h[8:1]/3h[8:1],,,8/7h[16:3],,,{48}2,3,4,{16}5,,8,8,,4,
{16}53,,87,,6-2[8:1],4,5,4,6,,1,1,7,3,3,1h[16:3],
{16},,8b,,5,3b/7b,,4,2b/6b,,,1,8,2,7,3,
(144)
{16}6pp3[1:1]*^1[2:1],,,,,,,,,,,,,,,,
{16},,,,,,,,4-1[8:1],,,,,,,,
{48}3qq7[1:1],4q6[48:35],5,{16},,,,,,,,,,,,,,,
{16},,,,,,,,8,,,17,,17,,,
(148)
{16}6>8[4:1],,,2,,2,,,4>6[4:1],,,7,,7,,,
{16}5>7[4:1],,,1,,1,,,3p7[8:1],,,5,,5,,,
{16}6>8[4:1],,,2,,2,,,4>6[4:1],,,7,,7,,,
{16}5pp4[4:1],,,1,,1,,,2-6[8:1],,3,6,2,7,,7,
{16}5,,3,3h[8:1],,5,4,6,5,,7,7h[8:1],,6,6,6,
{16}6,,57,,,,6,,5h[8:1]/7h[8:1],,,4h[8:1]/6h[8:1],,,53,,
{16}53,,6,6h[8:1],,4,5,3,4,,2,2h[8:1],,3,3,3,
{16}3,,24,,,,3,,2h[8:1]/4h[8:1],,,1h[8:1]/5h[8:1],,,68,,
{16}68,,1,1h[8:1],,4,2,6,4,,7,7h[8:1],,5,5,5,
{16}65,,47,,,,65,,4h[8:1]/7h[8:1],,,3h[8:1]/8h[8:1],,,12,,
{16}12,,8,8h[8:1],,5,7,3,5,,2,2h[8:1],,4,4,4,
{16}34,,25,,,,34,,2b/5b,,1,7,5,8,2,4,
{16}5h[1:1]/1b,,,,,,,,,,,,,,,,
(150){12}1,3,2,(143){12}8,6,7,(150){12}2,4,3,(148){12}7,5,6,
(140){48}4q5[2:7],,2b,1b,{12}8b,,{16},,,,,,,,,,,,
{1},,,
E
