&title=プリズムキューブ
&artist=wowaka
&first=0
&des=敬爱。
&lv_5=12+
&inote_5=(140)
{4},,,{8},2,
{8}3h[4:1]/5h[4:1],,,6h[8:3]/4,,5,5,4,
{8}3h[8:3],,4,4,,3,4,5,
{8}6h[4:1]/4h[4:1],,,3h[8:3]/5,,4,4,5,
{8}6h[8:3],,5,4h[8:3],,7,7,,
{8}6h[4:1]/2h[4:1],,,3h[8:3]/7,,4,4,5,
{8}4/6,,4,3/5h[8:3],,1,1,,
{8}3h[4:1]/7h[4:1],,,6/2,,3,4,5,
{8}4,,4,4,,4,4,5,
{8}6h[4:1],,3,2h[4:1],,4,,3,
{8}3-5[8:1],,6,6h[4:1],,5,,7,
{8}2h[4:1],,4,4-6[16:2],,3,,3,
{8}4qq5[8:3],,,6,,,,8,
{8}8<5[16:3],,,2,1>4[16:3],,6,,
{8}7,5,6,4,6h[1:0],5h[1:0],4h[1:0],3h[1:0],
{8}3>8[16:3],,,5pp4[8:3],,,1,1,
{8}2,5,3,4,3-1[8:1],,,5,
{8}6,8,7,7-4[16:3],,2,2-8[8:1],,
{8}6,,7,7h[8:2],,5,,4,
{8}3/5-7[8:1],,2,2-4[16:2],,7,,8,
{8}8pp5[8:3],,,4,,,,3,
{8}3-8[16:3],,6,7-4[16:3],,3,2,2,
{8}1,5,3,4,3h[1:0],4h[1:0],5h[1:0],6h[1:0],
{8}6<1[16:3],,,4qq5[8:3],,,8,8,
{8}7,4,6,5,6-4[8:1],,1b,,
{8}3/4,4,2,4,3/4,5,4/5,,
{8}6/5,5,7,5,6/5,4,5/4,,
{8}3/5,3,6,4,4/5,3,2/4,1,
{8}7/3,7,7/5,7,7/4,7,7/2-4[8:1],,
{8}5,5,6,4,7-4[8:1]/5,7,3,3,
{8}2,2,2/1,2,2/7,2,2/5-7[8:1],,
{8}4,4,3,5,2-5[8:1],2,7,,
{8}8/4,8,8/3,8,8-4[8:1]/2,8,1,,
{8}2>5[8:1]/5,,6,7h[4:1],,5,4-1[8:1],,
{8}4/6,,8,7-3[8:1]*-4[8:1],,,,5,
{8}6/2>5[8:1],,7,8h[4:1],,1,,6,
{8}7v5[8:1]/3v1[8:1],,,,2/6,3,2/6,,
{8}1/7-4[8:1],,1,2h[4:1],,6,5-8[8:1],,
{8}5/3,,2,1-5[8:1]*-6[8:1],,,,3,
{8}2-5[8:1]/6,,7,8h[4:1],,4,3,2,
{8}1-5[8:1]/4-8[8:1],,,,7/3,6,7/3,,
{8}2-6[8:1]/6,,5,5-8[8:1],,4,,2,
{8}7-3[8:1]/3,,4,4-1[8:1],,5,,7,
{8}6-2[8:1],,1,3<7[16:3],,8,8-5[8:1],,
{8}2,1-4[8:1],,7,,5,3/7,,
{8}5-8[8:1],,3,3-7[8:1],,3>8[4:1],,8<5[4:1],
{8},5>2[4:1],,8-4[16:2],,,,3,
{8}2/6,,8,7/3,,3,2,1bpp5[8:3]/5b,
{8},,,,,,7/1,2,
{8}3/8b-4[8:1],8,2,2,6-1[8:1],6,2,3,
{8}4>1[8:1],4<7[8:1],,,8-4[8:1],,8/1,2,
{8}3-5[8:1],,7/3,6-2[8:1],,1>4[8:1]/6,,8/1<6[8:1],
{8},1/3,2,1h[4:1],,8,3/7,6,
{8}4-8[8:1]/5,,3/4,2<7[8:1],,2/6>3[8:1],,2h[4:1]/6,
{8},1,3/8,4-8[8:1]/7-5[8:1],,,,1,
{8}1>7[4:1],,8,8pp4[8:3],,,,,
{1}1b,,
{8}4h[8:2],,6,3h[4:1]/5,,4,4-6[8:1],,
{8}3,3,2/8,2,3-5[8:1]/7-5[8:1],,3/7,,
{8}6h[8:2],,5,4/7h[4:1],,3,3-5[8:1],8,
{8}7,7,7/6,7,7-4[8:1]/5-2[8:1],,7/5,,
{8}1h[8:2],,5,3h[4:1]/4,,5,5-7[8:1],,
{8}4,4,4/8,4,7<4[8:1]/4>1[8:1],,4q5[4:14]/7,,
{1},,,
{8},,,,,,,2,
{8}2pp2[16:5],,,7,6pp6[16:5],,4,,
{8}3,4,5,6,3h[1:0],4h[1:0],5h[1:0],6h[1:0],
{8}7<4[16:3],,,3qq4[8:3],,,6,6,
{8}7,5,6,4,5pp6[4:1],,,4,
{8}3-7[8:1],,5,5h[4:1],,8,1-5[8:1],,
{8}1/7,,6,6-4[8:1]*-2[8:1],,,,1,
{8}8<5[8:1],,3,3h[4:1],,4,5,3,
{8}4-1[8:1]*-7[8:1],,,,2/6,3/5,2/6,7,
{8}8-4[8:1],,1,1h[4:1],,5,6<1[8:1],,
{8}4/6,4qq2[8:1]*q8[8:1],,,,,3/7,6,
{8}4/5,3,5,4/6,,1,2/6,7,
{8}3/8,,1/8,2,3/5,7b,4/6,2b,
{8}7-3[8:1]/3,,4,4>1[8:1],,5,,7,
{8}2-6[8:1]/6,,5,5<8[8:1],,4,,2,
{8}4-8[8:1],,6,5V37[16:3],,2,1,1,
{8}2/6,7,1/8,2,3-7[8:1]/4-8[8:1],,3/4,,
{8}2>5[8:1]/5,,6,6<1[8:1],,5,4,3,
{8}2-8[8:1]*-5[8:1],,2,,3/7,4/6,3/7,6,
{8}5-8[8:1]*-8[8:1],,1,2,,8-3[8:1]/3-8[8:1],,3bV16[8:3]/8bV26[8:3],
{8},,,,,,4/8,3,
{8}2/5b<8[8:1],5,3,3,7-4[8:1],7,2,1,
{8}8>3[8:1],8<5[8:1],,,4qq5[4:1],,6,7,
{8}8-4[8:1],,3,2-6[8:1],,8<5[8:1]/2,,1/8>3[8:1],
{8},6/8,7,8h[4:1],,5,3/7,2,
{8}1-5[8:1],,1/7,6>3[8:1],,2<7[8:1]/6,,2/5,
{8},1/5,2/6,3v8[8:1]/7<4[8:1],,3/7,,1,
{8}2>5[8:1],,7/2,8<5[8:1],,8/5pp4[8:3],,3h[8:5],
{8},,,,8b,,1/7,6,
{8}5/2b-5[8:1],2,6,6,4-8[8:1],4,7,6,
{8}5>1[8:1]*<1[8:1],,,,3/7,4/6,3/7,2,
{8}1-5[8:1],,6,7-4[8:1],,7/8,,2V46[16:3],
{8}2,7V53[16:3],,,2w6[8:1],,,,
{8}4-8[8:1]/8,,5,6-3[8:1],,2/6,,1,
{8}2/7,3>5[8:3]/6<4[8:3],4/5,3b/6b,,,,6,
{8}3/7-4[8:1],,1/7,2-5[8:1],,1/2,,7,
{16}1b/8b,,2,7,2,7,2,7,1,8,1,8,1,8,1,8,
{1}1V35[4:14]*V75[4:14],,,,
{1}3q5[4:3],7h[1:1],5pp5[4:6]*qq5[4:6],,
{8},3h[8:1],,5h[8:1],,,
{8},4h[8:1],,6h[8:1],,,
{8},6h[8:1],,5h[8:1],,,
{8},3h[8:1],,4h[8:1],,,
{8},6h[8:1],,4h[8:1],,,
{8},3h[8:1],,5h[8:1],,,
{8},4h[8:1],,5h[1:0],
