&title=Abstruse Dilemma
&artist=打打だいず/Ashrount
&first=0
&des=Asahisrza
&lv_5=14+
&inote_5=(216){1},
{4}7pp6[4:5],5h[2:1],,,B5,B4,B3,,{4}2pp1[4:5],7h[2:1],,,B7,B6,B5,,
{4}6qq8[4:5],2h[2:1],,,B2,B3,B4,,{4}4pp1[4:5],8h[2:1],,,
(108){8}8-5[16:1]b,,8,,
(216)
{4}6h[4:1]/4,
{12}3,3,4,2h[12:3],,,6,6,5,7h[12:3],,,8,8,6,5,7,3,4-8[8:1]b,2,6,
{4}4b,{12}6,6,5,7h[12:3],,,3,3,4,2h[12:3],,,1,1,3,4,2,6,5-1[8:1]b,7,3,
{4}5b,{12}3,3,4,1h[12:3],,,6,6,5,8h[12:3],,,3,4,2,7,8,6,3,4,2,
{4}1b/5b,{12}6,6,5,8h[12:3],,,3,3,4,1h[12:3],,,6,5,7,2,1,3,6,5,7,
{1}2b>4<6<8[16:9]*>3-5-7>8[16:9]b/C1h[2:1],
{32}1bx,2,3,4,5,6,7,8,1bx,2,3,4,5,6,7,8,
{32}1bx,2,3,4,5,6,7,8,1bw5[8:1]b,,,,,,,,
{4}1,2v5[8:1]/6-1[8:1],26,{12}7,6,5,
{4}4/3-8[8:1],3/6-2[12:1],6,{12}3h[4:1]/1,8,7,
{4}6v1[8:1],6/2-5[8:1],{12}2,,6,47,,3,2z6[4:1]/5h[2:1],,,,,,,,,
{12}1,1,1,5,6,7,82,3,4,58,7,6,58,1,2,
{12}35,6,7,84,3,2,14,5,6,72,3,4,
{12}6b,5,7,3b,4,2,7b,8,6,2b,1,3,
{12}5,5,3,6,6,4,4-2-6-1[8:3]b,,,,,,
{4}8,7v4[8:1]/3-8[8:1],73,{12}2,3,4,
{4}6/5w1[8:1],5,4w8[8:1],4,
{12}3-1[6:1],,1-5[8:1],3,,,6-8[6:1],,8-4[8:1],6,,,
{12}1>5[4:1],,,5<7[6:1],,8,8h[12:5],,,
{12}1,2,3,
{12}54,,,4/5h[8:1],3,2,81,,,8h[8:1]/1,2,3,
{24}7b,6,5,,3,,7b,6,5,,2,,6b,5,4,,1,,6b,5,4,,1-5[6:1],,
{12}1x,,,7-3[6:1],7,7,7h[1:0]x,,,2-6[6:1],2,2,2h[1:0]x,,,
{12}7,5h[1:0],1,3h[1:0],5,8h[1:0],6,4h[1:0],1,
{4}3b-6[2:3]b,,,,B8/B7,,B2/B3,,
{4}1>4[6:1],E7/B7,8<5[6:1],B2/E3,3>7[6:1],A4/B4,6<2[6:1],B5/A5,
{4}3b>6[2:3]b,,,E7,E8,E1,E2,E3,
{4}1-3<4[6:1],B6/B7,8<7-5[6:1],B2/B3,
{12}2,4,3,{12}7,5,6,{24}2,3,4,5,6,7,1xs5[6:1]/8xz4[6:1],,,,,,
{12}1x/8x,,,27,,,28,,3,35,,,
{12}1-5[8:1]/7,,,18,,6,64,,3,35,,18,
{12}8,,,5h[12:1]/7h[12:1],,,18,,35,3,,,
{12}8/2-5[8:1],,,27,,6,46,,2,24,,,
{12}7-4[12:1],,7,2-5[12:1],,2,8-4[12:1],,8,1-5[12:1],,1,
{12}7-4[12:1],,7,2>5[12:1],,2,8-4[12:1],,8,1,,1,
{24}2,3,4,,6,,5,,7,,5,,8,7,6,,3,,5,,2,,4,,
{32}1,2,3,4,5,6,7,8,1,2,3,4,5,6,7,8,
{4}1x-4[12:1],7x-2[12:1],3x-6[12:1],8x-5[12:1],2h[4:1],
{4}1-6[8:1]b,1b-4[8:1]b,1b-5[8:1]b,1bw5[8:1]b,1b/C1f,
{12}3x,,4,2-6[24:3],6,6,2>5[24:3]b,,,{24}12,8,7,6,,,
{12}6x,,5,7-3[24:3],3,3,7<4[24:3]b,,,{24}87,1,2,3,,,
{12}3x,,4,2,6,6h[24:5],{24}2>5[24:3]b,1,8,7,,,{24}2x/6x,7,8,1,,,
{4}2x-5[24:3],2-8[24:3]/7-3[24:3],2/7-4[6:1],71,
{12}1,8,1,27,4,6,3,5,4,6-1[24:3],,,
{4}6/3-8[24:3],3/5-8[24:3],5/4-1[24:3],47,
{12}71,72,73,74,,,28,27,26,25,,,
{12}1,7,5,8,3,5,1-5[12:1]*-5[12:1],,,,,,
{12}6x,,5,7-3[24:3],3,3,7<4[24:3]b,,,{24}87,1,2,3,,,
{12}3x,,4,2,6,6h[24:5],{24}2>5[24:3]b,1,8,7,,,{24}2x/6x,7,8,1,,,
{4}1x<6[8:1]/5x>2[8:1],15,1-4[8:1]/5-8[8:1],1-6[8:1]/5-2[8:1],15,
{12}1x/5x,26,37,48,1,2,3,4,5,
{12}2,7,4,8,1,5,2,7,4,8,1,5,
{4}3-8[8:1]b,3b/6-1[8:1]b,6b/2-5[8:1]b,2b/7,
{12}3b/6,4,5,3bx/6x,4,5,3b/6b,,,3/6b,5,4,3x/6bx,5,4,3b/6b,,,
{12}3b/6,4,5,3x/6bx,5,4,
{1}3b<5-8>2[2:3]b/6b>4-1<7[2:3]b,,
{4}3h[8:3]x,{24}E2,B2,B3,E4,,,{4}6h[8:3]x,{24}E8,B7,B6,E6,,,
{4}2h[8:3]x,{24}E2,B2,B3,E4,,,{4}7h[8:3]x,{24}E8,B7,B6,E6,,,
{4}4h[16:3]/8h[8:1],3h[8:1]/7h[16:3],2h[16:3]/6h[8:1],1h[16:3]/5h[8:1],
{24}5h[24:3],,1b,2,3,,6h[24:3],,2b,3,4,,7h[24:3],,3b,4,5,6,8b,1,2,3,4,5h[24:7],
{1}1bp4>2[4:5]b*q6<8[4:5]b,,
{24}1,2,3,4,5-1[8:1]/6,,{12},,,7,,8,,{24}2/8h[12:1],3,4,,
{12}6,5,7,5,6,5,{24}8b,1,2,3,4,5,6x<1[8:1]b,,,,,,
{24}2b,3,4,5h[4:1],,,{12},,,76,,45,,23,,
{12}2,3,2,3,2h[12:3],,{24}1b,8,7,6,5,4h[4:1]/E1,E8,E7,E6,E5,E4,,
{24}8x,7x,6x,5x,4x-8[8:1]/2x,,{12},,,2,,1,,{24}7/1h[12:1],6,5,,
{12}3,4,2,4,3,4,{24}1b,8,7,6
,5,4,3x>8[8:1]b,,,,,,
{24}7b,6,5,4h[4:1],,,{12},,,23,,54,,76,,
{12}7,6,7,6,7h[12:3],,{24}8b,1,2,3,4,5h[4:1]/E1,E2,E3,E4,E5,E6,,
{12}1-5[8:1],,7q4[8:1],1,,7,2,,,35,,46,,24,,
{12}57,1,8,2>8[16:3]/6h[3:2],,,,,,
{24}1x,2,3,4,5,,7h[2:1],,,E5,E4,E3,E2,E1,E8,E7,E6,,,,,,,,
{12}2-4-8-6[2:1]/4h[4:1],,,,,1h[12:1],,,,5h[12:1],,,
{12}7-4[8:1],,2-6[8:1],7,,2,8-4[8:1],,3-8[8:1],8,,3,
{24}7b,6,5,,,,7b,6,5,,,,{24}7b/3b,62,5/1s5[4:1]b,,,,,,,,,,
{12}7-3[8:1],,7,,,,4v1[8:1],,4,,,,
{24}6,5,4b/2bh[12:1],,,,3,4,5b/7bh[12:1],,,,
{24}6,5,4b/1bw5[0.46##0.13]b,,,,,,,,,,
{1}1>8[1:3]*<2[1:3],,,{4},,,
{12}3h[6:1],,4,3,,,6h[6:1],,5,6,,,2h[6:1],,1,3,,,7h[6:1],,8,6,,,,,,
{2}5/1q4[1:1],{6},6,7,{2}8h[16:7],
{64}B7/B3,B6,B2,B5,B1,E5,E1,,,,,,,,,,{4},
{12}2h[6:1]/7h[6:1],,,3,4,3,27,,,6,5,6,27,,,3,4,2,17,,,6,5,7,82,,,
{12}2,1,4,38,,,7,8,5,16,,,2,1,4,
{12}3/8z4[6:1],,,8,,2,
{12}2x-6[12:1],,,7-2[12:1],,,3-7[12:1],,,8-4[12:1],,2,
{12}2h[6:1],,5,5h[6:1],,1,1h[6:1],,8,{24}7x,6,5,4qq1[2:1],3,2,
{6}1<5[6:1],,,,5,5,{16}1,5,1,5,1,5,1,5,
{24}1x,2,3,4,5,6,7,8,1,2,3,4,{1}5bs1[4:3]/1b>5<8[4:3]b,
{4},{32}1b-5[8:1]b/8b-4[8:1]b,27,36,45,,,,,
{32}1b>4[8:1]b/8b<5[8:1]b,,,,,,,,1b/8b,,,,,,,,
{6}2h[4:1]x/7b-4[8:1],{12},7-1[8:1],,{24}1,2,{12}3/7x,,,
{12}3h[12:1],4,1,6h[12:1],5,8,2h[12:1],4,3,8h[12:1],4,6,1-5[8:1]b,5,3,1x,
{12},,2,6,4,7,3,8,1-5[8:1],,,
{24}1b/7b<4[8:1]b,,,,,,7b/8b-4[8:1],1,2,3,,,8b>3[8:1]b/7b,6,,,,,8b/7b,6,5,4,,,
{6}3x/4x,3x/4x,18,57,24,68,13,
{12},2,3,4,51,2,3,48,1,2,3bv1[8:1]/7bv5[8:1],,,
{12},,,48,,26,,84,,
{12}3h[12:1],6,1,5h[12:1],4,8,3h[12:1],6,1,5h[12:1],4,8,
{24}3,2,1,,,,{12}6,5,8,{12}3b/4b,,
{12}1b>4[0.37##0.18]/8b<5[0.37##0.18],,5b/6b,,
{24}1bpp4[3:1]b/8bqq5[3:1]b,E2/E8,E7/E3,E4/E6,,,
{6},,,
{12},2h[6:1]/7h[6:1],,,,,1-5[24:3],5,5,
{24}1x>4[24:3]b,,,,,,{24}8b/1b,7,6,5,,,
{4}8w4[8:1]b,8,1w5[8:1]b,1,
{12}2bx/5,3,4,2b/5x,3,4,25,,,7bx/4,6,5,7b/4x,6,5,74,,,
{12}2/8h[6:1],3,4,1h[6:1]/7,6,5,4,4,4,4,4,4,4,,,
{12}5,5,5,5,5,5,5,,,1,1,1,1,1,,
{12}2bx/5,3,4,2x/5bx,4,3,25,,,7bx/4,6,5,7x/4bx,5,6,74,,,
{12}1,2,3,41,8,7,{1}6/1b-4-2-5[4:5]b*-6-8-5[4:5]b,,
{12}7b-5[8:1]/5,,,7/5,4,3,2,,,
{12}2b-4[8:1]/4,,,2/4,5,6,7,,,
{12}7b-4[8:1]/4,,,7/4,3,2,1,,,
{12}1b-3-5[5:1]/5,,,1/5,6,7,8,,,
{4}4b/8b,{12}47,37,27,17,,,
{4}5b/1b,{12}52,62,72,82,,,
{4}4b/8b,{12}48,38,28,18,,,
{24}2h[6:1]b/8b,7,6,5,,,8h[6:1]b/2b,3,4,5,,,
{24}1h[6:1]b/7b,6,5,4,,,7h[6:1]b/1b,2,3,4,,,
{24}2h[6:1]b/8b,7,6,5,,,8h[6:1]b/2b,3,4,5,,,
{24}7b/1b,26,35,4,,,8b/2b,37,46,5,,,1b/7b,62,53,4,,,
{24}5b/1b,26,37,48,,,8b/4b,73,62,51,,,
{96}5bx<7>1>3<5<7s3[1.11##4.46]b,1bx-5[1.11##0.14],,,
{24}62,73,84,,,
{4},,,{32}1bxx,B1,C8f,B5,
