&title=透明エレジー
&artist=n-buna
&first=1.07
&des=Ragna
&wholebpm=110
&demo_seek=44.4
&demo_len=19.1
&des_5=Ragna
&lv_5=13+
&inote_5=(110){16}
3h[16:3],,,5,,,46,,7h[16:3],,,5,,,64,,
3h[16:3],,,4,,,25,,6h[16:3],,,5,,,74,,
3h[16:3],,,1,,,28,,7h[16:3],,,8,,,16,,
2h[16:3],,,1,,,38,,45,,,,,,,,{96},{16}
7h[16:3],,5,5,,6,4,5,3,4,2h[8:1],,8,1,7,2,
6h[4:1],,5,,3h[16:3],,4,4<8[8:1],,,1,,2,,3,7,
3h[16:3],,6,6h[16:3],,,8,,,1,7,2,8,3,1,4,
5h[16:3],,3,3,{8}6h[8:1],1,8-4[8:1],,,3,
2,1,8,4,2,6,4,8,
3qq4[16:5],,,5,6,7,8,2,
5pp8[16:5],,,4,4h[8:3],,,7,
2,5,3,8z4[16:3],4,,,2^4[12:1],
1,8,7,6-4[12:1],7,8,1,2-6[8:1],
3,,,5^8[8:1],4,3,2,1-5[8:1],
8,,,6-3[8:1],4,,,2^5[8:1],
1,8-4[8:1],7,3,2,{16}6,5,{8}6,3h[2:1],
1<4[16:3],,,,2,1,8,7^2[8:1],
6,3p6[8:1],4,5,5,,74,83,
2h[8:3]/1>7[4:1],,,,1,2,3,6-1[8:1],
7,4-8[8:1],3,6q2[8:1],5,3,4,{256},{8}18,
2b-5[8:1]/7b,3,7-4[8:1]/2,6,2-5[8:1]/7,3,7-4[8:1]/2,6,
1-4[8:1]/7,3,7-4[8:1]/1,5,1-4[8:1]/7,3,7-4[8:1]/1,5,
1-5[8:1]/7,2,8-4[8:1]/1,7,1-5[8:1]/8,2,8-4[8:1]/1,7,
2-6[8:1]/8,3,8-4[8:1]/2,7,8/2h[8:1],,1b/6b,,{512},{8}
4/5v8[8:1],6,4v1[8:1]/5,3,4/5v8[8:1],6,4v1[8:1]/5,3,
8v5[8:1]/4,6,4v1[8:1]/8,2,8v5[8:1]/4,6,4v1[8:1]/8,2,
8^5[8:1]/4,7,1^4[8:1]/8,2,8^5[8:1]/1,7,1^4[8:1]/8,2,
5^8[8:1]/1,7,1^4[8:1]/5,3,5^8[8:1]/1,7,5b/1b,,
{16}2h[8:1],,4,4,3h[16:3],,6,6h[8:1],,4,8,2,{32}7,4,{16}6,3,3,
7,7h[8:1],,1,8,,3,3,5-1[8:1],4,6,3,5,,2,,
3h[16:3],,4,4,,6,1,8,3,3h[8:1],4,4,,6,2,8,
{32}1,5,{16}1,6,3,{32}8,7,6,5,1,2,3,4,
{16},6,2,8h[8:1],,4,5,2,6,1,6,2,8,2,6,4,
6h[8:1],{32}3,2,{16}1,5,2,6,3,8,4,6,4,5,2,5,1,7,
1,8,4,8,3,5,1,,2h[16:5]/7,,,,,6,4,8,
3,4,1h[8:1],,6,5,8h[8:1],,3,3,5,5,1,1,6,6,
3h[8:1],,8,4,6,,15,,{300},
{2}6q3[4:1]/4h[8:3],4,4p7[4:1]/6h[8:3],6,
4q1[4:1]/2h[8:3],2,1q6[4:1]/8h[8:3],{4}8-4[8:1],1,
{2}3V15[4:1]/6h[8:3],6,7V51[4:1]/4h[8:3],4,
1V73[4:1]/6h[8:3],6,
{16}2/5h[8:1],,3,,7/4h[8:1],,6,,3,5,2h[8:1],,8,,17,17,{1},
{4}65,35,64,4h[16:1]/3h[32:1],
74,5h[32:1]/3h[16:1],65,25,
64,2h[32:1]/4h[16:1],75,34,
7h[32:1]/4h[16:1],2z6[4:1]/6,8,,
{16}6h[16:3]/5,,,4,,,45,,3h[16:3]/4,,,5,,,54,,
7h[16:3]/5,,,4,,,35,,2h[16:3]/4,,,5,,,64,,
7h[16:3]/5,,,8,,,18,,2h[16:3]/4,,,1,,,18,,
7/5h[16:3],,,4,{8},36,27,,,,
1bV35[8:1]/8b,2,8V64[8:1]/1,7,1V35[8:1]/8,2,8V64[8:1]/1,7,
2V46[8:1]/8,1,7V53[8:1]/2,8,2V46[8:1]/7,1,7V53[8:1]/2,8,
2v4[8:1]/7,1,8v6[8:1]/2,1,2v4[8:1]/8,1,8v6[8:1]/2,1,
3v1[8:1]/8,2,7v5[8:1]/3,6,3h[8:1]/7,,2b/7b,,
5q1[8:1]/4,6,4p8[8:1]/5,3,5q1[8:1]/4,6,4p8[8:1]/5,3,
6q2[8:1]/4,5,3p7[8:1]/6,4,6q2[8:1]/3,5,3p7[8:1]/6,4,
6pp8[8:1]/3,5,4qq2[8:1]/6,5,6pp8[8:1]/4,5,4qq2[8:1]/6,5,
7qq5[8:1]/4,6,3qq1[8:1]/7,2,7qq5[8:1]/3,6,3qq1[8:1]/7,2,
37,6,35,2,18,,,,
{16}2h[16:3],,4,4,,3,5,4,6,5,7h[8:1],,1,8,2,7,
3h[4:1],,4,,6h[16:3],,5,5>1[8:1],,,8,,7,,6,2,
6h[16:3],,3,3h[16:3],,,1,,,8,2,7,1,6,8,5,
4h[16:3],,6,6,3h[8:1],,8,,1-5[8:1],,,,,,6,,
7h[16:3]/4,,,8h[16:3],,,1,,27,,4,5,4,5,4,5,
{4},E
