&title=翠杜
&artist=隣の庭は青い(庭師+Aoi)
&first=0.059999995
&des=HanaNeko -Spirit of Silvano-
&wholebpm=180
&clock_count=4
&lv_5=14+
&inote_5=(180){1},
{16},,,,,,,,,,,,,,8<4pp8[8:17],1,
2,,,,{8},,E2,,E3,,
E4,,,,2,,1,,
8qq5[8:7],,,,,,5,
5p1[2:1]*q1[2:1],,,,,,,,,
3pp1>3[2:3],,,,8,,7,,
6,,,,5,,,,
{12}6x,6,4,7,3,8,3x,3,5,2,6,1,
{8}E8,E4,E6,E2,E5,C,1bx>3[8:1],,
{16}
5/1<7[8:1],,,6,1-3[8:1],,5,,5/1-7[8:1],,,4,1-4[8:1],,5,,
5/1-6[8:1],,,6,1-5[8:1],,5,,5/1,,6,,7/4,,8,,
4/8>2[8:1],,,3,8-6[8:1],,4,,4/8-2[8:1],,,5,8-5[8:1],,4,,
4/8-3[8:1],,,3,8-4[8:1],,4,,4/8,,3,,2/5,,1,,
6/8h[8:1],,6,,7h[8:1]/5,,5,,6/4h[8:1],,6,,5/3h[8:1],,5,,
8x/3,7,6,5,48,,1x,2,3,4,51,,8x,7,6,5,
8b,4x,8b,4x,8b,4x,8b,4x,1b,5,2b,6,3b,7,4b,8,
{32}5bx/1bx,84,73,62,5x-1[8:1]/1xh[3:1],4,3,2,,8,7,6,{16}5x,Cf,,,,,7x,,
{32}7xb/3h[8:1],E8,B8,B1,E2,,,,,,,,3,,,,3xb/7h[8:1],E4,B4,B5,
E6,,,,,,,,7,,,,7xb/3h[8:1],E8,B8,B1,
E2,,,,,,,,3,,,,3xb/7h[8:1],E4,B4,B5,
E6,,,,,,,,7,,,,7xb/3h[8:1],E8,B8,B1,
E2,,,,,,,,3,,,,3xb/7h[8:1],D4,A4,D5,
A5,D6,,,,,,,7,,,,7xb/3h[8:1],D8,A8,D1,
{32}A1,D2,,,{8}3x,3,3h[8:5],{16}4,5,6,7,8,7,6,5,
{8}4-8[8:1],,42,2-6[8:1],,28,8q4[8:1],,
86,6<1[8:1],,64,4-8[8:1],,5/4,,
7-3[8:1],,71,1p5[8:1],,13,3>8[8:1],,
35,5,,{16}6,3,6,3,6,3,5s1[8:1]*-1[8:1],4,5,4,
{4},,{24}7bx,E7,B6,B5,3bx,E3,B2,B1,8bx,,7bx,,
6bx,,,,,,{32}4,,,,4/7h[8:1],D4,A3,D3,
A2,D2,,,,,,,8,,,,8/3h[8:1],D8,A7,D7,
A6,D6,,,,,,,2,,,,2/7h[8:1],E3,B3,B4,
E5,,,,,,,,7,,,,7/3h[8:1],E8,B8,B1,
{8}E2,4,5<8[8:1],6h[4:1],{16},,{32},1x,2,3,4,5,6,7,8,1,2,3,
{8}4q8[8:1],,42,2V46[8:1],,28,8q5[8:1],,
86,6<1[8:1],,6,5,4,3,2bq7[8:3]b/B8/B1/E1f,
{4},7>2[4:1],2>5[4:1],5<8[4:1],8>3[4:1],3,{16}5,6,7,8,1,2,3,4,
{8}1<5[8:1]/5,,13,,4,3,2,6/1pp1[4:1],
,17,6,5h[8:3],,,{16}1qq5<8[8:9],62,73,84,
{8}5b/1b,,,,,,{16},,E2,E3,{8}E4,,,,84,73,62,51,
4/8>4qq5[2:1],,68,,7,8<5[8:1],,8,
,4,3/7h[8:1],3,2/6h[8:1],2,1/5h[8:1],1,
{32}8b>5pp4[4:5]b/4b,D5/D1f/A5/A1/D6/D2/A6/A2/D7/D3/A7/A3/D8/D4,,,,,,,{8},,,,{16},,E2,E3,
{8}E4,,,,1p5[8:1]*v4[8:1],,,,
{6}6hx[3:1]/3,1,4,2h[3:1]/8,6,4,8h[3:1]/6,4,2,{12}4h[3:1]/7,,6,,5,5,
{12}1,4,2,6,6/4h[6:1],,7,7,5,1,3,5,5/1h[3:1],,3,,5,,73,,5,
{32}E8,E7,E6,E5,E4,E3,E2,E1,
{4}A7/D8/E8f,{24}1b,2x,3x,4x,5x,6x,,,,1b/3h[8:1],8x,7x,6x,5x,4x,,,,
1b/7h[8:1],2x,3x,4x,5x,6x,,,,7b/1h[8:1],6x,5x,4x,3x,2x,,,,1b>4[8:1]b/6h[8:1],,,,,,
7h[8:1]/1b,,,,,,8b,7,6,5,4,3,,,,2b/8h[8:1],3,4,5,6,7,,,,
7b/1h[8:1],6,5,4,3,2,,,,2b/8h[8:1],3,4,5,6,7,,,,
{8}1-5[8:1],73,
{16}5x/1x,,,,6b,5,6,5,7,,3b,4,3,4,2,,
6b,5,7,4,6,,3b,4,2,5,3,,2b-4[8:1]/6b-8[8:1],,37,,
2b/6b,,,,7b,3,5,1,6,2,8b,4,7,2,5,8q5[16:9],
{1}4bq1[2:1]b,
{16}2xh[2:3],,,,,,,,,,,,,,,,
A8,D8,A7,D7,A6,D6,A5,D5,A4,,2,,3,,4,,
7,6,5,4,3,2,1,8,7,6,5,4,3,2,1,8,
7/3,,,,,,1,2,3,4,5,6,7,8,1,2,
3xh[2:3],,,,,,,,,,,,,,,,
A4,D5,A5,D6,A6,D7,A7,D8,A8,,3,,2,,1,,
6,5,4,3,2,1,8,7,62,,3,,7<5[8:1]/4,,3,,
{8}7-1[8:1]/2,1,7/2-6[8:1],3,8xw4[8:1]/2,,{16}8b,,,,
{8}E8/2xh[4:1],,B7,3,B6/3-1[8:1],,E6/3,,A8/3h[4:1],,A7,4,A6/4-1[8:1],,A5/4,,
{16}8h[4:1]/E2,,,,B2,,7,6,5-7[8:1]/B3,,,,5/E4,,,,
{8}5/A1,6,7/A2,8,1-5[8:1]/A3,,1/A4,,3,3,63,63,62,62,62,62,
{16}71,2,73,4,75,,13,8,73,6,53,,68,1,62,3,
{32}4b,5,6,7,8,1,2,3,4,5,6,7,8,1,2,3,4/8b,7,6,5,4,3,2,1,8v5[8:1]b,7,6,5,4v1[8:1],3,2,1,
{16}8/4bx,Cf,{8},,6,5,6,7,
{32}7b/3h[4:1],E8,B8,B1,
E2,,,,,,,,3,,,,2bx/3h[4:1],E3,B3,B4,E5,,,,,,,,3,,,,5bx/3h[4:1],E6,B6,B7,
E8,,,,,,,,3,,,,8bx/3h[4:1],B8,C,B4,,,,,,,,,3,,,,4h[4:1]/3bx,D3,A2,D2,
A1,D1,,,,,,,48,,,,4bx/8bx,D5/D1,A5/A1,D6/D2,A6/A2,,,,8x/4x,,7x/3x,,6bx<1[8:1]/2bx>5[8:1],,,,,,,,
{8},,73,8/2-5[8:1],,7-3[8:1]/2-8[8:1],8,7x/2x,,,53,6/2v5[8:1],,2<7[8:1]/6q3[8:1],7,2x/6x,
{8},B5/B4/E5,,{16}1q5[8:1],8,2,7,1<6[8:1],,8,,13,,
,,1,2,3,4,5>1[8:1],,1x/5x,8,7,6,5x,,4xw8[8:1],,
{8},4bx,,6h[8:3]/3,4,3,2,
{32}2b/6h[4:1],E2,B1,B8,
E8,,,,,,,,6,,,,7bx/6h[4:1],E7,B6,B5,E5,,,,,,,,6,,,,4bx/6h[4:1],E4,B3,B2,
E2,,,,,,,,6,,,,1bx/6h[4:1],B1,C,B5,,,,,,,,,6,,,,5h[4:1]/6bx,D7,A7,D8,
A8,D1,,,,,,,51,,,,5bx/1bx,D5/D1,A4/A8,D4/D8,
A3/A7,,,,6x/2xqq7[8:5],,,,6bxqq3[2:1]b/2bx,E7/E3,B7/B3,B8/B4,E1f/E5,,,,
{2},{16},,,,7xh[4:1]/5,4,3,2,1>5[4:1],,,,51,6,7,8,1h[8:3],,B5,,C,,B1,,
{8},8-4[8:1]/2-4[8:1],,8/2-6[8:1],,5<8[8:1]/2,,5,
{16}4h[8:1],,,B7/3h[8:1],,,B6/2,,5h[8:1]/B4,,,6h[8:1]/B3,,,7/B2,,
E7/1h[8:1],,,E8/2h[8:1],,,E1/3,,{4}C/4h[8:3],2h[2:1],
{4}6h[4:1],{32},1h/5h,8h/4h,7h/3h,6h/2h,5h/1h,4h/8h,
,,,,,,,,,6,,,,6h[4:1]/8bx,D1/A1,,D2/A2,,D3/A3,,D4/A4,,,,,
6,,,,6h[8:3]/7bx,D8/A8,,D1/A1,,D2/A2,,D3/A3,,,,,
4,,,,4h[4:1]/6bx,D7/A7,,D8/A8,,D1/A1,,D2/A2,,,,,
4,,,,4/5bx,B5/C,,B1/A1,,,,,8/4,,7/3,,
6bpp5[4:1]/2bpp1[4:1]b,,,,,,,,
{16},,,,,,2x,3x,4x,5x,6x,7x,8x/4x,,73,,6b/2b-5[8:1],,3,4,2,,6h[8:1],,
,,8-5[8:1]/4-1[8:1],,73,,8x/4x,,,,7-2[8:1]/3-6[8:1],,62,,7x-4[8:1]b/3x-8[8:1]b,,,,7/3,,,,51,,
6b-1[8:1]/2b,,7,8,6,,2h[8:1],,,,8<5[8:1]b/4>1[8:1],,73,,8x/4x,,
,,,,6,2,7,3,6,2,8,4,7-3[8:1],3,5,1,
{32}7b,,Cf,,,,,,,,,,3h[4:1]/8bx,D8/A7,,D7/A6,,D6/A5,,D5/A4,,,,,
3,,,,3h[4:1]/1bx,D1/A8,,D8/A7,,D7/A6,,D6/A5,,,,,
3,,,,3h[8:3]/4bx,D5/A5,,D6/A6,,D7/A7,,D8/A8,,,,,
1,,,,1h[4:1]/2bx,D3/A3,,D4/A4,,D5/A5,,D6/A6,,,,,
1,,,,1h[8:1]/7bx,D7/A6,,D6/A5,
{32},,,,1,,,,2bx/1,3x/8bx,4bxqq5>1[4:3]/7x,A5f/6bxpp5<1[32:23]b,,,,,{1},
{8}84,84,73,73,62,62,51,5h[8:1]/1,{16}8,4,8,4,7,3,7,3h[16:1],
{24}7b,8h/4h,1h/5h,2h/6h,3h/7h,4h/8h,5bw1[8:1]/1h,,,,,,
{24}5b,,,,,,3xh[8:1]/6bx,5,4,,2,1,8,,,7hx[8:1]/8bx,1,2,3,4,5,,,,
3hx[8:1]/5bx,6,7,8,1,2,,,,8hx[8:1]/5bx,6,7,,1,2,3,,,8b-4[8:1],,,,,,
8b/4bw8[8:1]b,,,,,,A4/E5/B4/E4,,,,,,,,,5h[8:1]/2b,3,4,,6,7,8,,,
1h[8:1]/7b,6,5,4,3,2,,,,8h[8:1]/3b,2,1,,7,6,5,,,1bx-5[8:1]b,,,7x/3x,,,
{16}1bx,Cf,,,6bx,6,5x,7,8/4,,3bx,3,4,2,15,,
6b,6,5,7,84,,3b,3,4,2,15,,6b-1[8:1]/2bv5[8:1],,73,,
6b/2b,,,,3b,3,4,2,5,1,6b,6,5,7,4,8,2b,2,5,3,6,1,7b,7,4,6,3,8,
{32}5bxqq3qq1qq7qq5[2:9],E5,B4,B3,1bxqq7qq5qq3qq1[8:35]b,E1,B8,B7,
{2},,,,,,,,,
E
