&title=私は、私達は
&artist=MORE MORE JUMP!/Guiano
&first=0
&des=LiTANiA
&lv_5=13
&inote_5=(170){4},,,,,,,,
{8}3h[8:3]/5h[8:3],,,,,4,3h[8:1],4,3h[8:3]/5h[8:3],,,,,5,4,,5h[8:3]/3h[8:3],,,,,4,3h[8:1],4,3h[8:3]/5h[8:3],,,,,4,5,,
6h[8:3]/4h[8:3],,,,,5,6h[8:1],5,6h[8:3]/4h[8:3],,,,,4,5,,4h[8:3]/6h[8:3],,,,,5,6h[8:1],5,6h[8:3]/4h[8:3],,,,,5,4,,
{16}36,,,,E2/B2,,4h[16:1],,3,,4,,E2/B2,,5,,36,,,,E2/B2,,4h[16:1],,3,,4,,E2/B2,,5,,
36,,,,E2/B2,,4h[16:1],,3,,4,,E2/B2,,5,,36,,,,E2/B2,,4h[16:1],,3,,4,,E2/B2,,5,,
63,,,,E8/B7,,5h[16:1],,6,,5,,E8/B7,,4,,63,,,,E8/B7,,5h[16:1],,6,,5,,E8/B7,,4,,
63,,,,E8/B7,,5h[16:1],,6,,5,,E8/B7,,4,,
3h[8:1]/6,,4h[8:1],,5h[8:1],,6h[8:1],,E4,,E3,,E7,,E6,,
{24}1b,2x,3x,4x,5x,6x,7x,8x,1x,2x/7b,3x,4x,5x,6x,7x,8x,1x,2x,{8}3bx/6bV48[32:8],,,2,2h[8:2],,8qq8[8:2],,,,
{24}2b,3x,4x,5x,6x,7x,8x,1x,2x,3x/7b,4x,5x,6x,7x,8x,1x,2x,3x,{8}4bx/6bV47[32:8],,,2,2-6[8:1],,8h[16:1],8h[16:1],4h[16:1],4h[16:1],
{24}7b,6x,5x,4x,3x,2x,1x,8x,7x,6x/2b,5x,4x,3x,2x,1x,8x,7x,6x,{8}5bx/3bV52[32:8],,,7,7-3[8:1],,1,1,2<8<6[8:4],,
8<6b[8:2],,6,,5<8>3[8:4],,8>3b[8:2],,3,,4>8<4[8:4],,8<4b[8:2],,4,,8>5<2[8:4],,5<2b[8:2],,2,,5,,
7b/3b-8[8:2],,,5,4-7[8:2],,,2,3-8[8:2],,,5,4-7[8:2],,,3,
2-5[8:2],,,7,8-4[8:2],,,1,2-7[8:2]*-5[8:2],,,,,6,4,5,
2-6[8:2],,,7,7-4[8:2],,,1,2-6[8:2],,,8,8-3[8:2],,,4,4-1[8:2],,,7,
7-3[8:2],,,5,5-2[8:2],,,,,1,8,7,
6-1[8:2],,,4,5-2[8:2],,,7,6-1[8:2],,,4,5-2[8:2],,,6,
7-4[8:2],,,2,1-5[8:2],,,8,7-2[8:2]*-4[8:2],,,,,3,5,4,
7-3[8:2],,,1,2-6[8:2],,,5,5-8[8:2],,,4,4-1[8:2],,,8,8-3[8:2],,,5,
5-1[8:2],,,7,7w3[8:3],,,,,,,3,
2b/5b,2,2/E5,2,25,,E5/3b,3,43,3,3/E5,,2b/5b,2,2/E5,2,
2b/7b,2,2/C,2,27,,C/1b,1,18,1,1/C,,2b/7b,2,2/C,2,
7b/4b,7,7/E5,7,74,,E5/6b,6,56,6,6/E5,,7b/4b,7,7/E5,7,
3h[8:8]/7h[8:8],,,,,,,,,,,,Ch[32:1],,5h[8:16],,
7x,3x,6x,4x,7x,3x,6x,4x,7x,3x,6x,4x,{48}A8,D8,A7,D7,A6,D6,,,,,,,D5,A4,D4,A3,D3,A2,,,,,,,
{8}6-8[8:1],2,36,4,6-1[8:1]/5,2,3/6b,4,6-8[8:1]/5,2,36,4,5-1[8:1]/6,,45,,
3-1[8:1],7,63,5,3-8[8:1]/4,7,6/3,5,3-1[8:1]/4,7,63,5,3/4-8[8:1],,45,,
6-8[8:1],2,36,4,6-1[8:1]/5,2,3/6b,4,6-8[8:1]/5,2,36,4,5w1[8:1],,5,,
7/8<5[8:1],6,18,2,4>1[8:1]/3,5,46,7,
28,3,7/4q8[8:1],8q5[32:5],4,,7,,
2/1>4[8:1],3,81,7,5<8[8:1]/6,4,5b/3,2,
71,6,2/5p1[8:1],1p4[32:5],5,,3,,
2/1>4[8:1],8,17,6,7/5<8[8:1],4,53,2,3/1>4[8:1],8,7/1qq6[8:3],8,1/5>2[8:1],,5,,
7/8<5[8:1],1,82,3,2/4>1[8:1],5,46,7,6/8<5[8:1],1,2/8pp3[8:3],1,8/4<7[8:1],,,,
2/1-5[8:1],3,81,7,6/4-8[8:1],3,24,1,7-1[12:1]/3,6,7/2-6[8:1],3,2>5[8:1]/5<8[8:1],,,,
7/8-4[8:1],6,18,2,3/5-1[8:1],6,7/5b,8,2-8[12:1]/6,3,2/7-3[8:1],6,7<4[8:1]/4>1[8:1],,,,
68,1b,28,3,24,5,46,3bp7[8:1]/7bp3[8:1],,3/7>5[8:3],,5,6,7,8,7,
61,5,38,2,16,7,3b/8b,4,56,7,1-4[8:1]/8-5[8:1],27,1b/8b,,,
