&title=Dsco
&artist=Sweet trip
&first=-0.3
&des=In_Cyan
&des_5=In_Cyan
&lv_5=13+
&inote_5=(135){4},,,,,,,,4v5[8:1]/6v5[8:1],
4/6,3p6[8:1]/7>2[8:1],3/7,
{8}5w1[8:1],3/7,{4}5,{8}3-6[8:1],8/1,{4}5h[4:1],
{8}8-3[8:1],7,6-1[8:1],5,4-7[8:1],3,2/4,1-5[8:1],
,1/6-2-8-4[8:3],{4}7,{8}4,3,2,1h[4:1],
,7-5[8:1],{4}5-1[8:1],{8}4,2,{4}3h[4:1],
{8}1-6[8:1],2,3-8[8:1],4,5-2[8:1],6,7/5,8-4[8:1],
,8/3-7-1-5[8:3],{4}2,{8}5,6,7,8h[4:1],
,2-4[8:1],{4}4-8[8:1],{8}5,7,{4}6h[4:1],
{8}8-3[8:1],7,6-1[8:1],5,4-7[8:1],3,2/4,1-5[8:1],
,1/6-2-8-4[8:3],{4}7,{8}4,3,2,1h[4:1],
,7-5[8:1],4-8[8:1],7,4,7,{4}6h[4:1],
{8}1-6[8:1],2,3-8[8:1],4,5-2[8:1],6,7/5,8-4[8:1],
,8/3-7-1-5[8:3],{4}2,{8}5,6,7,8h[4:1],
,2-6[8:1],{4}5-1[8:1],{8}5,2b,{4}3b-7[8:1],
3/6qq4[8:1],6/2<7[8:1],{8}2,6,1/5,4V25V31[8:3],
,4/7-3[8:1],6,7,,6/2,{4}2/6-2[8:1],
6/3pp5[8:1],3/7>2[8:1],{8}7,3,8/4,5V74V68[8:3],
,5/2-6[8:1],3,2,,7/3,{4}7/3v8[8:1],
3/7<4[8:1],7/2-6[8:1],{8}7-3[8:1],8-2[8:1],7,8-4[8:1],
,8/3-5-2-6[8:3],,3/5,,7,7,8h[8:1],
{4}6-2[8:1],5<8[8:1],{8}3,3-5[8:1],,6<4[4:1],
,3h[4:1],,,,6,{4}6-2[8:1],
6/3pp5[8:1],3/7>2[8:1],{8}7,3,8/4,5-7v4V68[8:3],
,5/2-6[8:1],3,2,,3/7,{4}7/3-7[8:1],
3/6qq4[8:1],6/2<7[8:1],{8}2,6,1/5,4-2v5V31[8:3],
,4/7-3[8:1],6,7,,2/6,{4}2/6v1[8:1],
6/2>5[8:1],2/7-3[8:1],{8}2-6[8:1],1-7[8:1],2,1-5[8:1],
,1/6-4-7-3[8:3],,6/4,,2,2,1h[8:1],
{4}3-7[8:1],4>1[8:1],{8}6,6-4[8:1],,3>5[4:1],
,6h[4:1],,,,3b,{4}3bh[4:1],
{8}4-7[8:1],2-5[8:1],4,2,{4}8-4[8:1],{8}2/8,3>5[8:3],
,4h[8:3],,,,3,2/5h[8:3],1-4[8:1],
,1,{4}7-5[8:1],{8}7-3[8:1],8,{4}1,
{8}5-2[8:1],7-4[8:1],5,7,1-5[8:1],2,7/1,6<4[8:3],
,5h[8:3],,,,6,4/7h[8:1],1v4[8:1],
,6,{4}5<8[8:1],{8}5-1[8:1],2,{4}5,
{8}5-2[8:1],7-4[8:1],5,7,{4}1-5[8:1],{8}7/1,6<4[8:3],
,5h[8:3],,,,6,7/4h[8:3],8-5[8:1],
,8,{4}2-4[8:1],{8}2-6[8:1],1,{4}8,
{8}4-7[8:1],2-5[8:1],4,2,8-4[8:1],7,2/8,3>5[8:3],
,4h[8:3],,,,3,5/2h[8:1],8v5[8:1],
,3,{4}4>1[8:1],{8}4,8b,{4}8b-4[8:1],
2>5[8:1]/8-6[8:1],8/2-6-4-8[8:3],{8}2,7,6,4>1pp8[8:3],
,7-4[8:1],6,7,,5/1,{4}5/1-5[8:1],
7<4[8:1]/1-3[8:1],1/7-3-5-1[8:3],{8}7,2,3,5<8qq1[8:3],
,2-5[8:1],3,2,,4/8,{4}8/4-6[8:1],
4/7-3[8:1],7/2pp1[4:1],{8}2,8<5[8:1],,8/3>8[8:1],
,3/6>3[8:1],,6/2h[4:1],,8,7,6,
{4}4/2-6[8:1],5<3[4:1],{8}4,4-8[8:1],,7-3[8:1],
,2V86-1[4:1],,2,,,{4}1x-5[8:1],
7<4[8:1]/1-3[8:1],1/7-3-5-1[8:3],{8}7,2,3,4-7-5-1[8:3],
,2-5[8:1],3,2,,4/8,{4}4/8-4[8:1],
2>5[8:1]/8-6[8:1],8/2-6-4-8[8:3],{8}2,7,6,5-2-4-8[8:3],
,7-4[8:1],6,7,,5/1,{4}1/5-3[8:1],
5/2-6[8:1],2/7qq8[4:1],{8}7,1>4[8:1],,1/6<1[8:1],
,6/3<6[8:1],,3/7h[4:1],,1,2,3,
{4}5/7-3[8:1],4>6[4:1],{8}5,5-1[8:1],,2-6[8:1],
,7-3-8[4:1],,8-4-7[4:1],,1b,{4}1bV36[4:1],
6V48[4:1],7-3[8:1],7>6[8:3],{8}2,3v8[8:1],
,3,,7h[4:1],,6,{4}4/8V63[4:1],
3V51[4:1],2-6[8:1],2<3[8:3],{8}7,6v1[8:1],
,6,,3h[4:1],,4,2/5,3/6,
{4}4V26[4:1],6V84[4:1],5-1[8:1],{8}5,3>6[4:1],
,5v8p4[8:3],,5,,2,{4}1h[4:1],
5V73[4:1],3V15[4:1],4-8[8:1],{8}4,6<3[4:1],
,4v1q5[8:3],,4,,7,{4}6V83[4:1],
3V15[4:1],4-8[8:1],4<3[8:3],{8}1,2,
,1h[4:1],,7,,4/6,{4}5/3V16[4:1],
6V84[4:1],5-1[8:1],5>6[8:3],{8}8,7,
,8h[4:1],,2,,3/5,{4}4/6pp5[4:1],
4>1[8:1],4-8[8:1],{8}4/2,3-6[8:1],,7-4[8:1],
,3>5[4:1],,5,,8,{4}7/3qq4[4:1],
5<8[8:1],5-1[8:1],{8}5/7,6-3[8:1],,2-5[8:1],
,6<4[4:1],,4,,1b,{4}1bw5[8:1],
{32}A1,B1,C,B5,{8}A5,
E
