&title=歌姬X
&artist=宮守文学
&first=0
&des=少女S
&lv_5=13+
&inote_5=(136)
{8},,,,,,Ch[32:1],,
{16}7h[8:6]/3,,,,{64}B4,E5,,,{16},,,,,,,{64}E6,D6,,,{16},,,
{16}7h[8:2],,,,{64}A3,D4,,,{16},,,2-6[8:1]/6-4[8:1],,,,26,,,,
{16}3h[8:6]/5,,,,{64}E1,B1,,,{16},,,,,,,{64}E7,B6,,,{16},,,
{16}3h[16:1],,2,,7h[16:1],,6,,{24}1xw5[8:1],8x,1x,8x,,,1x,,,,,,
{16}A3h[8:2]/E4h[8:2]/B3h[8:2],,,6,6,,5,,4/6,,7,,65,,4,,
{16}D8h[8:2]/A8h[8:2],,,2,2,,3/5,,2-5[8:1]/6-1[8:1],,,,2/6,,,,
{16}Ch[8:2]/7x,,7,,5x,,5,,2x/4x,,24,,4x/5x,,45,,
{16}6h[8:2],,,,3h[8:2],,,,8h[8:2],,,,1bw5b[8:1],,2b/7b,,
{16}1b,,,,3/4-2[8:1],,,,4/5,,,,3/4,,,,
{16}5/4,,,,6pp5[16:5]/5,,,,7h[8:2],,,,,,,,
{16}8,,,,7/5-8[8:1],,,,5/3,,,,5/7,,,,
{16}3/5,,2,4,3-8[8:1],5,4,5,3xv4-6[16:3],,,,{64}E1,B8,B1,,{16},,,
{16}2,,2,8,2-5-8-3[8:3],,3/7,,4x,,,,4x,,,,
{16}6,,6,5,6p1[6:1],,4/7,,3x,,,,3x,,1,1,
{16}2h[8:1],,4,3,7h[8:1],,5,6,8^3[8:1],,4^7[8:1],4,8,,4,,
{16}1b-7-2-6-3-5b[16:9],,,,,,,,,,,,,,,,
{16}7bx-4[8:1]/5bx,,6,,1,,1,,2x/3x,,4,3,,5,4,5,
{16}3-5[8:1],,2,,8-3[8:1],,7,,8b-6[8:1]*-5[8:1],,,,8b,,,,
{16}2bx-5[8:1]/4bx,,3,,8,,8,,7x/6x,,5,6,,4,5,4,
{16}6-4[8:1],,7,,1-6[8:1],,2,,1b-3[8:1]*-4[8:1],,,,1b,,,,
{16}6hx[8:1]/5x,,7,7h[8:1],,4,4h[8:1],,3,3h[8:1],,2,2h[8:1],,5,5,
{16}8qq5[16:6],,,,4,,,,3qq4[16:5],,,,4,,,,
{16}6x-1[8:1],,7,5,6,,3,,2x-6[8:1],4,,4,2,,5,,
{16}7x/3x,,,,,,,,,,{32}E7,B6,E3,B2,{4}C,
{16}4bw8b[8:1]/5b,,,,4bq5[8:2],,,,7-3[8:1],,,,7,,,,
{16}2/5,,2,4,3<7[32:5],,62,,3-1[8:1]/8-3b[8:1],,,,,,,,
{16}6bx/8bx-4[8:1],,,1,8,,3,,6bx/1bx^6[8:1],,,2,1,,4,,
{16}2x-6[8:1]/6x,,7-4[8:1],,2-8[8:1],,7,,2q5[32:9],,6x,,6x,,,,
{16}8bw4b[8:1],,,,8bqq1[16:5],,,,2^5[8:1],,,,2,,,,
{16}4/7,,7,5,6>2[32:5],,37,,6v7[8:1]/1pp3b[8:1],,,,,,,,
{12}1hx[12:1]/2hx[12:1],,2hx[12:1]/4hx[12:1],,4hx[12:1]/5hx[12:1],,
8hx[12:1]/7hx[12:1],,7hx[12:1]/5hx[12:1],,5hx[12:1]/4hx[12:1],,
{16}3bV58b[16:3]/6bV41b[16:3],,,,3b/6b,,,,2xz6[32:7],7x,3x,6x,,,,,
{16}1xv7[8:1]*v4[8:1],,,,1b,,,,3x/6x,2/5,,,2x/5x,3/6,,,
{16}5x/6x,7/4,,,7x/4x,5/6,,,3h[8:1],,{64}1bx,B1,,,,,,,{16}4h[8:1],,{64}1bx,B1,,,,,,,
{16}2xv8[8:1]/5xv8[8:1],,,,2b/5b,,,,1x/7x,2/6,,,2x/6x,1/7,,,
{16}2x/4x,3/5,,,3x/5x,2/4,,,6h[8:1],,{64}8bx,B8,,,,,,,{16}5h[8:1],,{64}8bx,B8,,,,,,,
{16}3x-8[8:1]/7x,,2,,3/4,,6,,5x-1[8:1]/1x,,3,,5/7,,6,,
{16}6x-1[8:1]/2x,,7,,6/5,,3,,4x-8[8:1]/8x,,6,,4/2,,3,,
{16}7bx-5[8:1]/3bx-5[8:1],,8,,3/7,,,,2bx-4[8:1]/6bx-4[8:1],,1,,6/2,,,,
{16}4x/6x,,1/4,,3x/5x,,8/5,,{32}2x,3,4,5,1x,8,7,6,{4}C,
{4}37,D2/B1/E6/E5,A3/E4/A8/B8,D2/B1/E6/E5,
{4}37,D2/B1/E6/E5,A3/E4/A8/B8,D2/B1/E6/E5,
{16}37,,37,,26,,26,,1,5,1,5,8,4,8,4,
{16}3bx/7bxw3b[45#128:5],,,,,,,,,,,,Cf,,,,
{32}1bx-7^6-4^3-1^8-6^5-3^2-8[8:6]/4hbx[8:6],D2,D3,D4,D5,D6,D7,D8,{4}D1,,,
{16}7^4[8:1]*p3[8:1],,,,7,,,,5,2,4,3,5,4,6,5,
{16}7bx/4bx-1[8:1],,1-3[8:1],,8,,8,,7bx-3[8:1],,3-6[8:1],,4,,4,,
{16}5bxp1[8:1]*-8[8:1],,,,5,,,,2,6,8,7,1,8,2,1,
{16}3x/7x-4[8:1],,65,65,,,1-5[8:1],,23,23,,,6,,74,7h[16:1]/4h[16:1],
{16},2,,14,1h[16:1]/4h[16:1],,6,,7x,5x,6x,2x,4x,3x,6x,5x,
{16}8bx^3[8:1],,3,,86,,7,,8bxV25[16:3],,2,,6/8-5[8:1],,7,,
{16}8bxz4^3-5^6[8:4],,,,7hx[8:4],,,,,,,,,,,,
{4}D1/B1/A8/B8/C/E8/A7/B7/D7/B6/5bx>1[8:4],6,6,6,
{4}4bx^7[8:3]/D2/B8/A1/B1/C/E2/A2/B2/B3,1,1-5[8:1],1,
{16}7bx/D4/D3/B4/E4/A3/B3/B2/E3,,,7,5,,5,,3bx/D7/A7/B7/E7/A6/B6/E6,,,3,4,,4,,
{16}6bx/D2/A1/B1/E2/A2/B2,,7,3,6,4,5,,{24}1xw5[8:1],8x,1x,{16}8x,,1x,,,,
{16}E8/D8/B8/A8/B7/3bx,,,6,65,,4,,35,,,6,65,,4,5,
{16}E7/E8/B7/A7/3bx,,,6,65,,4,,35,,6h[32:1],5,6,,4h[32:1],5,
{16}A6/D7/B6/3bx,,2,,1,,8,,7bx/B3/E3,,6,,5,,4,,
{16}3h[8:1]/C,,,,7h[8:1]/C,,,,1h[8:1]/C,,,,5bw1b[8:1],,7b/3b,,
{16}5b,,,,E3,,,,,,,,E3,,,,
{16}4x/1x,,,,E3,,,,,,,,E3,,4x/3x,,
{16}4x/5x,,,,E8,,,,,,,,E8,,,,
{16}5x/6x,,,,E8,,4x,,3x/6x,,,3x,4x-1[8:1],,3x,,
{16}45,,,,E7,,,,,,,,E7,,,,
{16}5x/8x,,,,E7,,,,,,,,E7,,5x/6x,,
{16}5x/4x,,,,E2,,,,,,,,E2,,,,
{16}3x/4x-1^8-5[16:5],,,,,,,,,,{32}D3,B3,D7,B7,{4}C,
{32}5b-1b[8:1]/2b,6b-1b[32:3]/3b,7b/4b,,,,,,{4}5b/6b,{16}2-6[8:1],1,,1,2,,7,,
{16}7,8,5,4,6V42[32:5],,37,,6-8[8:1]/1-6b[8:1],,,,1/6,,,,
{16}3bx/1bx-5[8:1],,,8,1,,6,,3bx/8bx^3[8:1],,,7,8,,5,,
{16}7x-3[8:1]/3x,,2-5[8:1],,7-1[8:1],,2,,7p4[32:9],,3x,,3x,,,,
{32}8b,1b-5b[8:1],2b-5b[32:3],3b,,,,,{16}1b/2b,,,,7^4[8:1],8,,8,7,,2,,
{16}2,1,4,5,3V57[32:5],,62,,3v2[8:1]/8qq6b[8:1],,,,8/3,,,,
{12}1hx[12:1]/7hx[12:1],,2hx[12:1]/4hx[12:1],,5hx[12:1]/4hx[12:1],,
8hx[12:1]/2hx[12:1],,7hx[12:1]/5hx[12:1],,5hx[12:1]/4hx[12:1],,
{16}6bV48b[16:3]/3bV51b[16:3],,,,6b/3b,,,,7x-4[8:1],2x-5[8:1],6x,3x,,,,,
{32}8xv5[8:1]*v2[8:1],1,2,3,4,5,6,7,{16}Cf,,,,6x/3x-8[8:1],7/4,,,7x,6,,,
{16}4x^7[8:1]/3x,2/5,,,2x,3,,,6h[8:1],,{64}8bx,B8,,,,,,,{16}5h[8:1],,{64}8bx,B8,,,,,,,
{32}7xv1[8:1]/4xv1[8:1],3,2,1,8,7,6,5,{16}Cf,,,,8x-4[8:1]/2x,7/3,,,3x,2,,,
{16}7x/5x^2[8:1],6/4,,,6x,7,,,3h[8:1],,{64}1bx,B1,,,,,,,{16}4h[8:1],,{64}1bx,B1,,,,,,,
{16}6x-1[8:1]/2x,,7,,6/5,,3,,4x-8[8:1]/8x,,6,,4/2,,3,,
{16}3x-8[8:1]/7x,,2,,3/4,,6,,5x-1[8:1]/1x,,3,,5/7,,6,,
{16}2bx-5[8:1]/6bx,,43,,25,,8,,7bx-4[8:1]/3bx,,65,,74,,1,,
{16}5x/3x,,7/8,,6x/4x,,1/2,,{32}7x,6,5,4,8x,1,2,3,{4}C,
{16}A3h[8:2]/E4h[8:2]/B3h[8:2],,,6,6,,5,,4/6,,7,5,6,,6,5,
{16}D8h[8:2]/A8h[8:2],,,2,2,,3/5,,26,,2h[32:1],4,3,,6h[32:1],5,
{16}Ch[8:2]/7x,,7,,5x,,5,,4x/2x,,43,,5x/6x,,75,,
{16}8h[8:1],,E1,,3h[8:1],,C,,6h[8:1],,E5,,1b-5b[8:6],,4b/7b-3[8:5],,E
