&title=参宿四~Betelgeuse~
&artist=VILLAX; Amberry
&first=0.01
&des=tkmr
&lv_5=14
&inote_5=(210){4},{1},,{4},,,{1}1>7[1:1],
7>5[1:1],
5<3[1:1],
3s7[1:1],
7>5[1:1],
5<3[1:1],
3<1[1:1],
1s5[4:3],
8<2[1:1],
2<4[1:1],
4>6[1:1],
6z2[1:1],
2<4[1:1],
4>6[1:1],
6>8[1:1],
{2}8z4[2:1],2-6[8:1],
{8}7h[8:3],{4},{8}5,{4}5/6,5/4,
{8}3,4,2,4,{4}3-6[8:1],7-4[8:1],
{8}1h[8:3],{4},{8}3,{4}4/2,3/5,
{8}6,4,7,5,{4}8-4[8:1],3-1[8:1],
{8}7h[8:3],{4},{8}5,{4}6/5,5/4,
{8}3,4,2,4,{4}3-6[8:1],7-4[8:1],
2h[4:1],{8}1,1h[4:1],,8,{4}8h[4:1],
{8}7,7h[8:3],,6,{16}6,5,4,3,7,6,5,4,
{8}2h[8:3],{4},{8}4,{4}4/3,4/5,
{8}6,5,7,5,{4}6-3[8:1],2-5[8:1],
{8}8h[8:3],{4},{8}6,{4}7/5,6/4,
{8}3,5,2,4,1-5[8:1],1,6-8[8:1],6,
2h[8:3],{4},{8}4,{4}4/3,4/5,
{8}6,5,7,5,{4}6-3[8:1],2-5[8:1],
7h[4:1],{8}3,4/2h[4:1],,6,{4}5/7h[4:1],
{8}2,4/1h[8:3],,3,{16}3,4,5,6,2,3,4,5,
{1}1w5[26.25#32:1],
,{8}1b,
{4},,,{16}6,5,
{2}4h[2:1],5h[8:7],
{1}3h[4:3],
{2},{4}2v5[4:1],5>2[4:1],
6h[4:3],{2},{4}3h[8:13],
{8}7,{4},{8}8,{4},1,
{1}2h[4:3],
{2},{4}7v4[4:1],4<7[4:1],
3h[4:3],{2},{4}6h[8:13],
{8}2,{4},{8}1,{4},8,
{1}7h[4:3],
{2},{4}5,6/4,
{8}3/7h[4:3],{4},{8}4,{4},5,
{8}6/2h[4:3],{4},{8}5,{4},4,
{1}3h[4:3]/6h[8:3],
{8}7,6,5,4,3,2,1,8,
{4}7-4[8:1],{8}7,1-5[8:1],,1,{4}8-4[8:1],
{8}8,2-5[8:1],,2,{16}1,8,7,6,{4}5/1,
2-5[8:1],{8}2,8-4[8:1],,8,{4}1-5[8:1],
{8}1,7-4[8:1],,7,8,1,2,3,
{4}6-1[8:1],{8}6,4-8[8:1],,4,{4}5-1[8:1],
{8}5,3-8[8:1],,3,
{16}4,5,6,7,8/4,,,,
{4}3-8[8:1],{8}3,5-1[8:1],,5,{4}4-8[8:1],
{8}4,6-1[8:1],,6,{16}5,4,3,2,{8}1,8,
7-5[8:1],8,7,1-5[8:1],8,1,8-4[8:1],1,
8,2-4[8:1],1,2,{16}8,7,6,5,{4}4/3,
{8}2-4[8:1],1,2,8-4[8:1],1,8,1-5[8:1],8,
1,7-5[8:1],8,7,1,2,3,4,
5-1[8:1],6,5,7-3[8:1],8,7,2-6[8:1],1,
2,4-8[8:1],3,4,{16}1,2,3,4,{8}5,6,
7-4[8:1],7,7/3,2-5[8:1],2,2/7,8,1,
{16}2,8,2,8,3,7,3,7,4,6,4,6,5-1[8:15],5,5,5,
{2}5h[384:1],5h[384:1],
5h[384:1],5-1[8:1]*w1[8:1],
{4}7b/3b<5[8:1],{8}3/7,8p4[8:1],,8/3,{4}2h[4:1],
{8}1p5[8:1],3<5[8:1],1,3,2,3/1,4/8,7/5,
{4}6>4[8:1],{8}6/2,1q5[8:1],,1/6,{4}7h[4:1],
{8}8q4[8:1],6>4[8:1],8,6,7,8/6,1/5,4/2,
{4}3>8[8:1],{8}3/4,5<8[8:1],,5/4,3,2,
1h[8:3],8,7,6,{16}5/1,2/6,3/7,4/8,{4}5-2[8:1]/1-6[8:1],
5/1,{8}3/7,3-8[8:1]/7-4[8:1],,3/7,,2-4[8:1],
6-8[8:1],2<8[8:1],6>4[8:1],2,6,7q3[8:1],3q7[8:1],7,
{4}6v1[8:1],{8}6/5,3v6[8:1],,3/4,{4}5h[4:1],
{8}7q3[8:1],6V82[8:1],7,6,4,5/6,7/8,1/2,
{4}4/3v8[8:1],{8}3/4,6v3[8:1],,6/5,{4}4h[4:1],
{8}2p6[8:1],3V17[8:1],2,3,5,4/3,2/1,7/8,
2/6h[4:1],3,4,6/5h[4:1],7,8,5/1h[4:1],4,
3,1/2h[4:1],8,7,6/1,7/2,{4}8<5[8:1]/3v8[8:1],
8/3,{8}1/6,1>4[8:1]/6v1[8:1],,1/6,,3/8,
{16}4,7,5,6,3,8,4,7,2,1,3,8,
{24}2,1,2,1,2,1,
{8}2<7[8:1],3,4,5>2[8:1],6,7,8<5[8:1],1,
2,3>8[8:1],4,5,6-2[8:1],4-2[8:1],6,4,
7>2[8:1],6,5,4<7[8:1],3,2,1>4[8:1],8,
7,6<1[8:1],5,4,3-7[8:1],5-7[8:1],3,5,
1v6[8:1],2,3,4v1[8:1],5,6,7v4[8:1],8,
1,2,3/7,4/8,{16}1v3[8:1]/5v7[8:1],4/8,3/7,2/6,{4}1/5,
{8}2-8[8:1],2,7/2,6-1[8:1],6,6/3,4-2[8:1],5-1[8:1],
4-8[8:1],5-7[8:1],4,5,1,2/8,7/3,4/6,
5-8[8:1],4,3/5,2-5[8:1],1,2/8,7-2[8:1],6,
7/5,4-7[8:1],3,2/4,1-5[8:1],8-6[8:1],1,8,
4^1[8:1],5,4/6,7^4[8:1],8,7/1,2^7[8:1],3,
4/2,5^2[8:1],6,7/5,8-4[8:1],1-3[8:1],8,1,
{16}7,8,6,1,5,2,8,1,7,2,6,3,1,2,8,3,
7,4,8,1,7,2,6,3,{8}5/4,7/8,2/1,3/6,
{16}5/1,2,3,4,5/7,6,5/8,1,2,3,4/6,5,4/7,8,1,2,
3/7,8,1,2,3/7,4/8,5/1,6/2,{32}7/3,4,5,6,7,8,1,2,3/8,7,6,5,4,3,2,1,
{1}8/4w8[4:5],
,8b,,,,,,,
{4},,,
{384}1h[384:1],
