&title=シャル・ウィ・ダンス
&artist=Reona
&first=0.68
&des=暗夜
&wholebpm=160
&des_5=暗夜
&lv_5=11+
&lv_6=13
&inote_5=(80){8}
6h[4:1],,5h[4:1],,7h[2:1],,,1,2h[4:1],,5h[8:1],4h[8:1],6h[2:1],,,,5h[4:1],,4h[4:1],,3h[2:1],,,1,1,8,7,63,4qq3[4:1]/5pp6[4:1],,,,
(117){16},,,,1q4[16:5],,,,,,,,,,,,
{8}5h[8:3]/6,6,,7V53[4:1],,4,,,1,1h[8:3],,3^6[8:1],4,5h[2:1],,,7,7-2[8:1],,6<3[4:1],,4h[2:1],,,5,5-1[8:1],,5xv7[8:1]*v3[8:1],,,,,
28,37,6bh[4:1]/4b,5,2h[4:1],4,6h[4:1],8,3h[4:1],1,4h[4:1],2,5h[4:1],7,6h[4:1],8,1,2,34,7,56,1,24,8,57,18,3qq6[16:5]/6,,,,5<4[32:7],,,,
1xh[8:1],3h[8:1],5h[8:1],1xh[8:1],3h[8:1],5h[8:1],1xh[8:1],{16}3h[16:3],,,
4-1[16:1],{16}4-7[8:1],,,,,,8xh[8:1],,6h[8:1],,4h[8:1],,1xh[8:1],,3h[8:1],,5x,4x,6xh[8:1],,7h[8:1],,8h[8:1],,1h[8:1],,2h[8:1],,3,,3,4,3,,52,,6,5,6,,47,,1,8,1p8[16:3],,,6,6,,,,5x,,5xq1[12:1]b/3x,,,,,,4x,,4xp8[12:1]b/6x,,,,,,6x,,6x^1[12:1]b/4x,,,,,,3x,,3x^8[12:1]b/5x,,,,,,7,,7^4[4:1],,,,4^1[4:1],,,,1^6[4:1],,,,5,,,,B2,,,,,,,,
4-1[12:1]b/5-8[12:1],,,,,,,,
{24}2^5[12:1],,,5,,2,1,,,8,,,7-4[12:1]b,,,2,,,E7f/3b,,,1,,,{16}1pp5[4:1],,,6,,,{24}8^6-4[6:1],,,8,,,,,,,,,3,,,2/4-1[12:1],,,,,2b,,,,3x,,,3x-8[12:1]/1x-4[12:1]b,,,,,1bx/3bx,,,,,,,6-1[8:1],,,5-2[8:1]/7,,,4x/6x,,,5x,,,,,,{16}8b,,,2b/6b,,,
{24}7^4[12:1],,,4,,7,8,,,1,,,2-5[12:1]b,,,7,,,E3f/6b,,,8,,,{16}8qq4[4:1],,,3,,,{24}1^3-5[6:1],,,1,,,6,,,7,,,8,,,1x-6[8:1],,,2,,,3x-8[8:1],,,4,,,5x-2[8:1],,,6,,,7x-4[8:1],,,8,,,1x,,,1xp7[8:2],,,5xp7[8:1]b,,,,,,,,,,,,
1x/8x,,,7,,,26,,3,4,,4,3,,,2,,,18,,7,5,,5,7,,,8,,,12,,3,5,,5,3,,,2,,,47,,6,5,,5,6,,,47,,,
7,,7,5,,5,6,,6,4,,4,5,,5,3h[8:1],,,8b,,,1,,,2,,2,4,,4,3,,3,5,,5,4,,4,6h[8:1],,,1b,,,,,,
{4}8bw4[12:1]b,,1bw5[12:1]b,,3xq6[2:1],,,,
{8}7h[1:1],,,,5,,3,,2q5[16:5],,6,7,8-4[8:1],,,,2h[4:3],,,,4,,6^1[8:1],,3x^6[8:1],,8x^3[8:1],,5x-1[8:1],,,,4>5[4:1],,,,,,,,C,,,,,,,,E
&inote_6=(80){8}
5-2[4:3]/6-1[4:5],,,,,,,,,,,,,,,,3-8[4:5],,,,4-7[4:3],,,,,,,,,,,,
(117){16},,,{32}B3,B4,{16}E5/E7,,E8,,E1,,E2,,E3,,,,
{8}6h[1:1],,1,,,1^4[8:1],,,,7p2[16:3],,,,1,1h[4:5],,3,,4,,,4q7[4:1],,,,2q5[4:1],,,,7,7,,
28,7,6b-4[8:1]/4b,3,2-5[8:1],1,7-1[8:1],6,4-8[8:1],3,6^1[8:1],5,3^6[8:1],2,8^3[8:1],7,6,5,4z8[16:3],3,2,1,2xv4[8:1],6x<2[32:5],,,{24}3,,3,4,,,6,,6,5,,5,4qq2[8:1]*pp6[8:1],,,,,,,,,,,,
{8}8x^3[12:1],4,2,1x^6[12:1],5,7,8xV24[32:5],{16}4,,,
3h[16:1],,,{96}B7,E7,B6,,,,,,,,,,B2,E3,B3,,,,,,,,,,{16}8x^3[12:1],,4,,2,,1x-5[12:1],,5,,7x,8x,1xV35[4:1],,3V57[4:1],,5V71[4:1],,7,,1,,3,,{24}4,,4,2,,2,4,,,45,,5,7,,7,5,,,36,,1,8,,8,1,,,7,6,5,4,3,2,{16}8b/1b,,8bq1[4:1]b/1b,,,,,,4x,,4bq5[4:1],,,,,,7x,,7bp6[4:1]b,,,,,,2x,,2bq3[4:1],,,,,,6,,6^3[4:1],,,,3^8[4:1],,,,8z4[4:1],,,,4,,,,B2,,,,,,,,
{24}36,,,27,,,8,1,8,1,8,1,
7-4[12:1],,,4,,7,8,,,1^6[12:1],,,2^5[12:1]b,,,1,,,D3/A2f/E3,,,6,,,7,,7,5-1[12:1],,5,6^3[12:1],,,5,,,6,,,2,,,35,,,6,,,7-4[12:1]/1,,6,5,,7b/8b,,,,1,,,2-6[12:1]b*-5[12:1]/8,,3,4,,1b/2b,,,,,,,7-4-8[24:5],,,8/2-5[12:1],,,7/1,,,2,,,,,,{16}7b/3b,,,1b/5b,,,
{24}2-5[12:1],,,5,,2,1,,,8^3[12:1],,,7^4[12:1]b,,,8,,,D7/A7f/E7,,,3,,,2,,2,4-8[12:1],,4,3^6[12:1],,,4,,,3,,,7,,,7,,,28,,,1x-6[12:1],,,2,,1,3x-8[12:1],,,4,,3,5x-2[12:1],,,6,,5,7x-4[12:1],,,8,,7,1x,,,1xp7[8:2]b,,,5xp7[8:1],,,,,,,,,,,,
1x/8x-4[12:1]b,,,7,,,1-3[12:1]/8,,,2,,,1/8^5[12:1],,,7,,,8/4^1[12:1]b,,,3,,,4/5-1[12:1]b,,,6,,,4-8[12:1]/5,,,3,,,4/5w1[12:1],,,6,,,5,,,,,,37,,,18,,,
7,,7,4,,4,5,,5,2,,2,5,4,5,3,4,3,8b,,,1,,,2,,2,5,,5,4,,4,7,,7,4,5,4,6,5,6,1b,,,,,,
{4}8bw4[12:1],A7/D8/A8f/D1/A1/E8/B8/E1,1bw5[12:1],A2/D2/A1f/D1/A8/E2/B1/E1,{8}6xh[1:1],E2,E3,E4,E5,E6,E7,E8,
{8}1h[1:1],,,,3h[8:1],,5h[8:1],,7h[1:1],,3h[2048:1],4h[2048:1],5h[2048:1],,8h[2048:1],,2h[1:1],,,,4h[8:1],,6h[8:1],,{48}8,7,6,5,,,,,,,,,2,3,4,5,,,,,,,,,7,6,5,4,,,,,,,,,1,2,3,4,,,,,,,,,{8}6h[1:1],,{32}E1,E2,E3,E4,E5,E6,E7,E8,{8}E1,,,,,,,,E
